(Avant-Prog) [CD] Justine - Languages Fantastiques - 1995, FLAC (tracks+.cue), lossless


Статистика раздачи
Размер: 313.02 МБ | Добавлен: 09 ноя 2019, 12:40 | Скачали: 0
Сидеров: 0  [0 байт/сек]    Личеров: 0  [0 байт/сек]

Сообщение Гость » 09 ноя 2019, 12:40

Justine - Languages Fantastiques
Жанр: Avant-Prog
Носитель: CD
Год выпуска диска: 1995
Страна: Canada
Производитель диска: Ambiances Magnétiques / AM033CD
Аудио кодек: FLAC
Тип рипа: tracks+.cue
Битрейт аудио: lossless
Продолжительность: 49:36
Наличие сканов в содержимом раздачи:
Трэклист:
01. La cigale s'impatiente (6:20)
02. Manigances (6:29)
03. Quem sabe (5:44)
04. Vie de famille (3:47)
05. Bon appétit (4:54)
06. Vidanges domestiques (8:26)
07. Roucoule roucoule (2:25)
08. Encre de Chine (6:38)
09. Marguerite (4:47)
Состав:
- Joane Hétu / Alto saxophone, vocals
- Diane Labrosse / Keyboards, vocals
- Danielle Roger / Drums, vocals
- Marie Trudeau / Bass, vocals
Доп. информация: http://www.progarchives.com/artist.asp?id=5096
Код: Выделить всё
Exact Audio Copy V1.3 from 2. September 2016
EAC extraction logfile from 12. September 2019, 21:18
Justine / Languages Fantastiques
Used drive  : TSSTcorpCDDVDW SE-208GB   Adapter: 1  ID: 0
Read mode               : Secure
Utilize accurate stream : Yes
Defeat audio cache      : Yes
Make use of C2 pointers : No
Read offset correction                      : 6
Overread into Lead-In and Lead-Out          : No
Fill up missing offset samples with silence : Yes
Delete leading and trailing silent blocks   : No
Null samples used in CRC calculations       : Yes
Used interface                              : Native Win32 interface for Win NT & 2000
Gap handling                                : Appended to previous track
Used output format              : User Defined Encoder
Selected bitrate                : 1024 kBit/s
Quality                         : High
Add ID3 tag                     : No
Command line compressor         : C:\Program Files (x86)\Exact Audio Copy\FLAC\FLAC.EXE
Additional command line options : -8 -V -T "ARTIST=%artist%" -T "TITLE=%title%" -T "ALBUM=%albumtitle%" -T "DATE=%year%" -T "TRACKNUMBER=%tracknr%" -T "GENRE=%genre%" -T "PERFORMER=%albuminterpret%" -T "COMPOSER=%composer%" %haslyrics%--tag-from-file=LYRICS="%lyricsfile%"%haslyrics% -T "ALBUMARTIST=%albumartist%" -T "DISCNUMBER=%cdnumber%" -T "TOTALDISCS=%totalcds%" -T "TOTALTRACKS=%numtracks%" -T "COMMENT=%comment%" %source% -o %dest%
TOC of the extracted CD
     Track |   Start  |  Length  | Start sector | End sector
    ---------------------------------------------------------
        1  |  0:00.00 |  6:20.20 |         0    |    28519
        2  |  6:20.20 |  6:29.45 |     28520    |    57739
        3  | 12:49.65 |  5:44.70 |     57740    |    83609
        4  | 18:34.60 |  3:47.72 |     83610    |   100706
        5  | 22:22.57 |  4:54.50 |    100707    |   122806
        6  | 27:17.32 |  8:26.55 |    122807    |   160811
        7  | 35:44.12 |  2:25.40 |    160812    |   171726
        8  | 38:09.52 |  6:38.73 |    171727    |   201649
        9  | 44:48.50 |  4:47.50 |    201650    |   223224
Track  1
     Filename G:\DWNLD TO CD 00\Justine -Langages Fantastiques\01 La Cigale S'impatiente.wav
     Pre-gap length  0:00:02.00
     Peak level 97.7 %
     Extraction speed 2.7 X
     Track quality 100.0 %
     Test CRC 945B6191
     Copy CRC 945B6191
     Accurately ripped (confidence 1)  [5D0167BD]  (AR v1)
     Copy OK
Track  2
     Filename G:\DWNLD TO CD 00\Justine -Langages Fantastiques\02 Magigances.wav
     Pre-gap length  0:00:03.10
     Peak level 97.7 %
     Extraction speed 3.1 X
     Track quality 100.0 %
     Test CRC 84E4AE0B
     Copy CRC 84E4AE0B
     Accurately ripped (confidence 1)  [F9DD57ED]  (AR v1)
     Copy OK
Track  3
     Filename G:\DWNLD TO CD 00\Justine -Langages Fantastiques\03 Quem Sabe.wav
     Pre-gap length  0:00:04.37
     Peak level 97.7 %
     Extraction speed 2.9 X
     Track quality 99.9 %
     Test CRC 339A6C60
     Copy CRC 339A6C60
     Accurately ripped (confidence 1)  [073E7036]  (AR v1)
     Copy OK
Track  4
     Filename G:\DWNLD TO CD 00\Justine -Langages Fantastiques\04 Vie De Famille.wav
     Pre-gap length  0:00:01.60
     Peak level 97.7 %
     Extraction speed 3.4 X
     Track quality 100.0 %
     Test CRC DC9E72C0
     Copy CRC DC9E72C0
     Accurately ripped (confidence 1)  [47E745AE]  (AR v1)
     Copy OK
Track  5
     Filename G:\DWNLD TO CD 00\Justine -Langages Fantastiques\05 Bon Appetit.wav
     Pre-gap length  0:00:02.36
     Peak level 97.7 %
     Extraction speed 3.7 X
     Track quality 100.0 %
     Test CRC 0A49A2EB
     Copy CRC 0A49A2EB
     Accurately ripped (confidence 1)  [3D436F96]  (AR v1)
     Copy OK
Track  6
     Filename G:\DWNLD TO CD 00\Justine -Langages Fantastiques\06 Vidanges Domestiques.wav
     Pre-gap length  0:00:02.13
     Peak level 94.4 %
     Extraction speed 3.8 X
     Track quality 100.0 %
     Test CRC 1E81F54B
     Copy CRC 1E81F54B
     Accurately ripped (confidence 1)  [F4FE96EF]  (AR v1)
     Copy OK
Track  7
     Filename G:\DWNLD TO CD 00\Justine -Langages Fantastiques\07 Roucoule Roucoule.wav
     Pre-gap length  0:00:03.46
     Peak level 97.7 %
     Extraction speed 3.7 X
     Track quality 100.0 %
     Test CRC 3BEAE191
     Copy CRC 3BEAE191
     Accurately ripped (confidence 1)  [2EB947AB]  (AR v1)
     Copy OK
Track  8
     Filename G:\DWNLD TO CD 00\Justine -Langages Fantastiques\08 Encre De Chine.wav
     Pre-gap length  0:00:03.26
     Peak level 97.7 %
     Extraction speed 4.5 X
     Track quality 100.0 %
     Test CRC 9FB47F44
     Copy CRC 9FB47F44
     Accurately ripped (confidence 1)  [B41BFAF2]  (AR v1)
     Copy OK
Track  9
     Filename G:\DWNLD TO CD 00\Justine -Langages Fantastiques\09 Marguerite.wav
     Pre-gap length  0:00:04.40
     Peak level 97.7 %
     Extraction speed 4.5 X
     Track quality 100.0 %
     Test CRC 744009FD
     Copy CRC 744009FD
     Accurately ripped (confidence 1)  [57BDA2C6]  (AR v1)
     Copy OK
All tracks accurately ripped
No errors occurred
End of status report
---- CUETools DB Plugin V2.1.6
[CTDB TOCID: CKN0QZr1wbAxLB1bO4I0rOgyrME-] found
Submit result: CKN0QZr1wbAxLB1bO4I0rOgyrME- has been confirmed
Track | CTDB Status
  1   | (2/2) Accurately ripped
  2   | (2/2) Accurately ripped
  3   | (2/2) Accurately ripped
  4   | (2/2) Accurately ripped
  5   | (2/2) Accurately ripped
  6   | (2/2) Accurately ripped
  7   | (2/2) Accurately ripped
  8   | (2/2) Accurately ripped
  9   | (2/2) Accurately ripped
==== Log checksum 1F183194E1C12ACA47FDCFC77CB0CE3D8102F2D980F447DF4EB0177F2A11B4E7 ====
Код: Выделить всё
REM GENRE Other
REM DATE 1995
REM DISCID 720BA009
REM COMMENT "ExactAudioCopy v1.3"
PERFORMER "Justine"
TITLE "Languages Fantastiques"
REM COMPOSER ""
FILE "01 La Cigale S'impatiente.wav" WAVE
  TRACK 01 AUDIO
    PERFORMER "Justine"
    REM COMPOSER ""
    TITLE "La Cigale S'impatiente"
    INDEX 01 00:00:00
  TRACK 02 AUDIO
    PERFORMER "Justine"
    TITLE "Magigances"
    INDEX 00 06:17:12
FILE "02 Magigances.wav" WAVE
    INDEX 01 00:00:00
  TRACK 03 AUDIO
    PERFORMER "Justine"
    REM COMPOSER ""
    TITLE "Quem Sabe"
    INDEX 00 06:25:17
FILE "03 Quem Sabe.wav" WAVE
    INDEX 01 00:00:00
  TRACK 04 AUDIO
    PERFORMER "Justine"
    REM COMPOSER ""
    TITLE "Vie De Famille"
    INDEX 00 05:43:25
FILE "04 Vie De Famille.wav" WAVE
    INDEX 01 00:00:00
  TRACK 05 AUDIO
    PERFORMER "Justine"
    REM COMPOSER ""
    TITLE "Bon Appetit"
    INDEX 00 03:45:45
FILE "05 Bon Appetit.wav" WAVE
    INDEX 01 00:00:00
  TRACK 06 AUDIO
    PERFORMER "Justine"
    REM COMPOSER ""
    TITLE "Vidanges Domestiques"
    INDEX 00 04:52:40
FILE "06 Vidanges Domestiques.wav" WAVE
    INDEX 01 00:00:00
  TRACK 07 AUDIO
    PERFORMER "Justine"
    REM COMPOSER ""
    TITLE "Roucoule Roucoule"
    INDEX 00 08:23:20
FILE "07 Roucoule Roucoule.wav" WAVE
    INDEX 01 00:00:00
  TRACK 08 AUDIO
    PERFORMER "Justine"
    REM COMPOSER ""
    TITLE "Encre De Chine"
    INDEX 00 02:22:20
FILE "08 Encre De Chine.wav" WAVE
    INDEX 01 00:00:00
  TRACK 09 AUDIO
    PERFORMER "Justine"
    REM COMPOSER ""
    TITLE "Marguerite"
    INDEX 00 06:34:43
FILE "09 Marguerite.wav" WAVE
    INDEX 01 00:00:00
Код: Выделить всё
[CUETools log; Date: 2019.11.04. 21:34:23; Version: 2.1.6]
[CTDB TOCID: CKN0QZr1wbAxLB1bO4I0rOgyrME-] found.
Track | CTDB Status
  1   | (3/3) Accurately ripped
  2   | (3/3) Accurately ripped
  3   | (3/3) Accurately ripped
  4   | (3/3) Accurately ripped
  5   | (3/3) Accurately ripped
  6   | (3/3) Accurately ripped
  7   | (3/3) Accurately ripped
  8   | (3/3) Accurately ripped
  9   | (3/3) Accurately ripped
[AccurateRip ID: 00118f4e-007f6fbe-720ba009] found.
Track   [  CRC   |   V2   ] Status
 01     [5d0167bd|6ee415fd] (1+0/1) Accurately ripped
 02     [f9dd57ed|75d00080] (1+0/1) Accurately ripped
 03     [073e7036|427c6317] (1+0/1) Accurately ripped
 04     [47e745ae|48d94f85] (1+0/1) Accurately ripped
 05     [3d436f96|f5126a14] (1+0/1) Accurately ripped
 06     [f4fe96ef|4ba011e6] (1+0/1) Accurately ripped
 07     [2eb947ab|c3730495] (1+0/1) Accurately ripped
 08     [b41bfaf2|380d52c4] (1+0/1) Accurately ripped
 09     [57bda2c6|ab246603] (1+0/1) Accurately ripped
Track Peak [ CRC32  ] [W/O NULL] [  LOG   ]
 --   97,7 [5BB1A652] [41FBE7BC]
 01   97,7 [945B6191] [F26CFE22]   CRC32
 02   97,7 [84E4AE0B] [81AE3BBE]   CRC32
 03   97,7 [339A6C60] [ED5C4F15]   CRC32
 04   97,7 [DC9E72C0] [DAF0D285]   CRC32
 05   97,7 [0A49A2EB] [8C4094C6]   CRC32
 06   94,4 [1E81F54B] [0671A09E]   CRC32
 07   97,7 [3BEAE191] [03FC6C0D]   CRC32
 08   97,7 [9FB47F44] [0598CDEB]   CRC32
 09   97,7 [744009FD] [9761855E]   CRC32
источник: сеть
Правила, инструкции, FAQ!!!
Торрент  Добавлен [09 ноя 2019, 12:40] Скачать торрент Магнет ссылка
Скачать торрент
26.93 КБ

Статус
Проверен 
 
Размер  313.02 МБ
Приватный: Нет (DHT включён)
.torrent скачан  0
Как залить торрент? | Как скачать Torrent? | Как смотреть и слушать онлайн?  
Гость
 


Вернуться в Progressive & Art-Rock

Кто сейчас на конференции

Сейчас этот форум просматривают: нет зарегистрированных пользователей и гости: 1