(Big Band Jazz/Eclectic Prog) [WEB] Overground Collective - Super Mário (Super Mario) - 2019, FLAC (tracks), lossless


Статистика раздачи
Размер: 179.35 МБ | Добавлен: 09 ноя 2019, 12:38 | Скачали: 0
Сидеров: 0  [0 байт/сек]    Личеров: 0  [0 байт/сек]

Сообщение Гость » 09 ноя 2019, 12:38

Overground Collective / Super Mário
Жанр: Big Band Jazz/Eclectic Prog
Носитель: WEB
Год издания: 2019
Страна исполнителя (группы): Denmark
Аудиокодек: FLAC (*.flac)
Тип рипа: tracks
Продолжительность: 32:32
Источник: собственная покупка
Наличие сканов в содержимом раздачи: нет

01. Intro [00:01:29]
02. Part 1 [00:11:32]
03. Part 2 [00:04:12]
04. Part 3 [00:02:41]
05. Part 4 [00:03:29]
06. Part 5 [00:03:04]
07. Part 6 [00:03:20]
08. Part 7 [00:02:40]
Доп. информация: Дебютный альбом очень интересного проекта "Overground Collective", созданного португальским композитором и гитаристом Пауло Диасом Дуарте. Этот проект является результатом исследования Пауло импровизации и ее связи с аранжировкой. Наблюдая за многими импровизаторами на лондонской сцене, Пауло собрал группу из 17 музыкантов с очень характерными импровизационными языками и техниками. Используя их различные подходы к импровизации в качестве композиционных инструментов, музыканту удаётся создать до такой степени эклектичный и яркий музыкальный ландшафт, что последний, удивительным образом преображается в свою собственную, индивидуальную и неповторимую сущность...
Released October 9, 2019
Chris Williams (Alto Sax / Soprano Sax / Flute)
Julie Kjær (Alto sax / Flute)
Rachel Musson (Tenor Sax / Flute)
Mike Lesirge (Tenor Sax)
Cath Roberts (Baritone Sax)
Tom Ward (Clarinet / Bass Clarinet)
Noel Langley (Trumpet / Flugelhorn)
Andre Canniere (Trumpet)
Chris Batchelor (Trumpet)
Yazz Ahmed (Trumpet / Flugelhorn / Electronics)
Paul Taylor (Trombone)
Raphael Clarkson (Trombone)
Olivir Haylet (Bass Trombone)
Ben Kelly (Sousaphone)
Paulo Dias Duarte (Guitar)
Dave O’Brien (Keys)
Jason Simpson (Electric Bass)
Jon Scott (Drums)
Код: Выделить всё
-----------------------
DON'T MODIFY THIS FILE
-----------------------
PERFORMER: auCDtect Task Manager, ver. 1.6.0 RC1 build 1.6.0.1
Copyright (c) 2008-2010 y-soft. All rights reserved
[url=http://y-soft.org]http://y-soft.org[/url]
ANALYZER: auCDtect: CD records authenticity detector, version 0.8.2
Copyright (c) 2004 Oleg Berngardt. All rights reserved.
Copyright (c) 2004 Alexander Djourik. All rights reserved.
FILE: 08 Part 7.flac
  Size: 17616109 Hash: 7EBB6D56F447D1DA96C5A43EFAF3B508 Accuracy: -m0
  Conclusion: CDDA 100%
  Signature: 47E66FC83DC36CE5EA9453E1FBF49C7F7C8DBF6C
FILE: 07 Part 6.flac
  Size: 17063072 Hash: DAB8FEAEE01C5B36C7F0DB15264B2085 Accuracy: -m0
  Conclusion: CDDA 100%
  Signature: AC18AA65CF11C3A621C5A4A4F3A0587875BD4C2C
FILE: 06 Part 5.flac
  Size: 13485527 Hash: B4C9AE2339B197EC9E24757DD0DAA903 Accuracy: -m0
  Conclusion: CDDA 99%
  Signature: 05813E79156F19F5B9D2F996F21F1BC8403A7D0B
FILE: 05 Part 4.flac
  Size: 21490948 Hash: E72B5646525D32C93572CFED1E0A9170 Accuracy: -m0
  Conclusion: CDDA 100%
  Signature: 2B2E9BD12BD53FFC1E7593CADE4F0E196EA34BF0
FILE: 04 Part 3.flac
  Size: 13905249 Hash: 04E20B0A806BABF7ECCEEA11265E6F9C Accuracy: -m0
  Conclusion: CDDA 100%
  Signature: EFBE09A371A5994970398A7D8A369F88AB6189F0
FILE: 03 Part 2.flac
  Size: 26869196 Hash: 3C00D0557511AB874D6920646FDD8ABA Accuracy: -m0
  Conclusion: CDDA 100%
  Signature: 5B1B4CEC7685FF4774C3644A48E16EA44FE46DCA
FILE: 02 Part 1.flac
  Size: 68892663 Hash: 19FDD603C1C787B5A3CCA1BB0A05C580 Accuracy: -m0
  Conclusion: CDDA 100%
  Signature: 2B93899EF442A49224F96454963F418767D78C7A
FILE: 01 Intro.flac
  Size: 4319883 Hash: AC254100430934DC265A4702200463D2 Accuracy: -m0
  Conclusion: CDDA 100%
  Signature: A882C6E9DDC02814A90A57934A9482C3E2F63E66
Код: Выделить всё
foobar2000 1.3.12 / Dynamic Range Meter 1.1.1
log date: 2019-11-01 16:21:17
--------------------------------------------------------------------------------
Analyzed: Overground Collective - Paulo Dias Duarte / Super Mário
--------------------------------------------------------------------------------
DR         Peak         RMS     Duration Track
--------------------------------------------------------------------------------
DR14      -2.08 dB   -20.44 dB      1:30 01-Intro
DR11      -0.16 dB   -14.14 dB     11:33 02-Part 1
DR11      -0.16 dB   -13.85 dB      4:13 03-Part 2
DR13      -3.17 dB   -19.37 dB      2:42 04-Part 3
DR11      -0.28 dB   -13.16 dB      3:30 05-Part 4
DR13      -0.30 dB   -16.94 dB      3:05 06-Part 5
DR11      -1.93 dB   -17.18 dB      3:21 07-Part 6
DR9       -0.22 dB   -12.53 dB      2:41 08-Part 7
--------------------------------------------------------------------------------
Number of tracks:  8
Official DR value: DR12
Samplerate:        44100 Hz
Channels:          2
Bits per sample:   16
Bitrate:           874 kbps
Codec:             FLAC
================================================================================
Правила, инструкции, FAQ!!!
Торрент  Добавлен [09 ноя 2019, 12:38] Скачать торрент Магнет ссылка
Скачать торрент
14.94 КБ

Статус
Проверен 
 
Размер  179.35 МБ
Приватный: Нет (DHT включён)
.torrent скачан  0
Как залить торрент? | Как скачать Torrent? | Как смотреть и слушать онлайн?  
Гость
 


Вернуться в Progressive & Art-Rock

Кто сейчас на конференции

Сейчас этот форум просматривают: нет зарегистрированных пользователей и гости: 4