(Crossover Prog) [WEB] Yogi Lang (RPWL) - A Way out of Here - 2019, FLAC (tracks), lossless


Статистика раздачи
Размер: 343.54 МБ | Добавлен: 09 ноя 2019, 12:41 | Скачали: 1
Сидеров: 3  [0 байт/сек]    Личеров: 0  [0 байт/сек]

Сообщение Гость » 09 ноя 2019, 12:41

Yogi Lang - A Way out of Here
Жанр: Crossover Prog
Носитель: WEB
Год издания: 2019-11-08
Издатель-лейбл: Gentle Art Of Music
Страна исполнителя: Germany
Аудиокодек: FLAC (*.flac)
Тип рипа: tracks
Битрейт аудио: lossless
Продолжительность: 00:50:58
Источник: интернет
Наличие сканов: нет
Треклист:
01. Move On (9:21)
02. A Way out of Here (5:30)
03. Shine on Me (5:47)
04. Don't Confuse Life with a Though (4:51)
05. Love Is All Around (4:52)
06. Freedom of the Day (4:06)
07. Early Morning Light (6:23)
08. The Sound of the Ocean (4:49)
09. I'll Be There for You (5:19)
Код: Выделить всё
CUE Corrector v. 8.3.5 / b. 935 (Nov. 02, 2019)
————————————————————————————————————————————————————————————————————————
Yogi Lang / A Way out of Here
Folder: Yogi Lang - 2019 - A Way out of Here [FLAC]
Audio files:
    01 Move On.flac [09:21.013; FLAC • 908 kbps • 16 bit \ 44100 Hz • stereo; 60.75 MB (63 698 480 B)]
    02 A Way out of Here.flac [05:30.427; FLAC • 975 kbps • 16 bit \ 44100 Hz • stereo; 38.43 MB (40 292 469 B)]
    03 Shine on Me.flac [05:46.880; FLAC • 905 kbps • 16 bit \ 44100 Hz • stereo; 37.46 MB (39 283 835 B)]
    04 Don't Confuse Life with a Though.flac [04:51.280; FLAC • 975 kbps • 16 bit \ 44100 Hz • stereo; 33.89 MB (35 532 166 B)]
    05 Love Is All Around.flac [04:52.400; FLAC • 1002 kbps • 16 bit \ 44100 Hz • stereo; 34.93 MB (36 626 573 B)]
    06 Freedom of the Day.flac [04:06.173; FLAC • 1031 kbps • 16 bit \ 44100 Hz • stereo; 30.26 MB (31 733 526 B)]
    07 Early Morning Light.flac [06:22.800; FLAC • 917 kbps • 16 bit \ 44100 Hz • stereo; 41.88 MB (43 917 790 B)]
    08 The Sound of the Ocean.flac [04:48.960; FLAC • 930 kbps • 16 bit \ 44100 Hz • stereo; 32.04 MB (33 592 242 B)]
    09 I'll Be There for You.flac [05:19.400; FLAC • 890 kbps • 16 bit \ 44100 Hz • stereo; 33.91 MB (35 552 284 B)]
Accuracy: -m0
File 01 Move On                          - 100% CDDA [09:21:01]
File 02 A Way out of Here                -  99% CDDA [05:30:32]
File 03 Shine on Me                      - 100% CDDA [05:46:66]
File 04 Don't Confuse Life with a Though -  95% MPEG [04:51:21]
File 05 Love Is All Around               - 100% CDDA [04:52:30]
File 06 Freedom of the Day               -  95% MPEG [04:06:13]
File 07 Early Morning Light              - 100% CDDA [06:22:60]
File 08 The Sound of the Ocean           - 100% CDDA [04:48:72]
File 09 I'll Be There for You            - 100% CDDA [05:19:30]
————— Summary: —————
These tracks looks like CDDA with probability 100%.
————————————————————————————————————————————————————————————————————————
[url=https://fastpic.ru/view/111/2019/1109/296ff2e53d08b0f3f943d6f6ee908437.jpg.html][img]https://i111.fastpic.ru/thumb/2019/1109/37/296ff2e53d08b0f3f943d6f6ee908437.jpeg[/img][/url] [url=https://fastpic.ru/view/111/2019/1109/1cd119d8600bb230f5420c6053cee6f3.jpg.html][img]https://i111.fastpic.ru/thumb/2019/1109/f3/1cd119d8600bb230f5420c6053cee6f3.jpeg[/img][/url]
ANALYZER:
    auCDtect: CD records authenticity detector, version 0.8.2
    Copyright (c) 2004 Oleg Berngardt. All rights reserved.
    Copyright (c) 2004 Alexander Djourik. All rights reserved.
Time elapsed: 2 m 04 s
Log created at November 09, 2019 07:51:15
=== A3FD00207ACFE124BE2DA0E61C1279B0DE4F275FACB45C6F6E47A9AAC370D039 ===
Код: Выделить всё
[CUETools log; Date: 09.11.2019 7:48:48; Version: 2.1.6]
[CTDB TOCID: Bjv3vgpE4TAgoptrp77CkiiGbco-] disk not present in database.
[AccurateRip ID: 0012b933-008583e5-680bf309] disk not present in database.
Track Peak [ CRC32  ] [W/O NULL]
 --  100,0 [DF8F1915] [ADC3768C]
 01   96,6 [55995E9B] [0584B8F3]
 02   94,4 [52FD2870] [AFA6E735]
 03   94,4 [49CBE540] [BBDB503A]
 04   98,8 [68BBA4AC] [6A4C642D]
 05   96,6 [8EF90B75] [95831951]
 06   92,0 [5D080176] [004B7180]
 07  100,0 [F661B21D] [A6F60571]
 08   94,4 [0961B0AA] [B4BB0DF1]
 09   94,4 [A9D5B51F] [D41F2BCC]
Код: Выделить всё
foobar2000 1.4.8 / Замер динамического диапазона (DR) 1.1.1
Дата отчёта:  2019-11-08 03:05:32
--------------------------------------------------------------------------------
Анализ:   Yogi Lang / A Way out of Here
--------------------------------------------------------------------------------
DR         Пики         RMS           Продолжительность трека
--------------------------------------------------------------------------------
DR6       -0.30 дБ    -9.27 дБ      9:21 01-Move On
DR7       -0.50 дБ    -8.72 дБ      5:30 02-A Way out of Here
DR6       -0.50 дБ    -7.99 дБ      5:47 03-Shine on Me
DR7       -0.10 дБ    -8.42 дБ      4:51 04-Don't Confuse Life with a Though
DR7       -0.30 дБ    -8.35 дБ      4:52 05-Love Is All Around
DR7       -0.72 дБ    -9.58 дБ      4:06 06-Freedom of the Day
DR8        0.00 дБ    -9.42 дБ      6:23 07-Early Morning Light
DR6       -0.50 дБ    -8.78 дБ      4:49 08-The Sound of the Ocean
DR6       -0.50 дБ    -9.69 дБ      5:19 09-I'll Be There for You
--------------------------------------------------------------------------------
Количество треков: 9
Реальные значения DR: DR6
Частота:   44100 Гц
Каналов:   2
Разрядность:   16
Битрейт:   878 кбит/с
Кодек:   FLAC
================================================================================
Правила, инструкции, FAQ!!!
Торрент  Добавлен [09 ноя 2019, 12:41] Скачать торрент Магнет ссылка
Скачать торрент
14.39 КБ

Статус
Проверен 
 
Размер  343.54 МБ
Приватный: Нет (DHT включён)
.torrent скачан  1
Как залить торрент? | Как скачать Torrent? | Как смотреть и слушать онлайн?  
Гость
 


Вернуться в Progressive & Art-Rock

Кто сейчас на конференции

Сейчас этот форум просматривают: нет зарегистрированных пользователей и гости: 0