Джокер 2. Операция «Капкан» / Серии: 1-4 из 4 (Михаил Погосов) [2016, Боевик, SATRip]


Статистика раздачи
Размер: 2.34 ГБ | Добавлен: 12 дек 2016, 21:19 | Скачали: 12
Сидеров: 149  [0 байт/сек]    Личеров: 19  [0 байт/сек]

Сообщение Гость » 12 дек 2016, 21:19

Джокер 2. Операция «Капкан»
Год выпуска: 2016
Производство: Кинокомпания BERG SOUND
Жанр: Боевик
Продолжительность: 00:46:00
Субтитры: нет

Режиссёр: Михаил Погосов

В ролях: Дмитрий Клепацкий, Александр Штендлер, Анна Невская, Олег Шкловский, Евгений Березовский, Евгений Осокин, Алексей Агрызков, Игорь Трошин, Павел Кузьмин, Дмитрий Самойлов (II), Тимофей Ухов, Маргус Прангель, Марианна Мартиросян, Анна Смирнова (III), Сергей Морин, Вилен Бабичев, Александр Бадалян, Аршо Арутюнян, Арам Караханян, Юрий Сафаров, Виктор Пипа, Игорь Скурихин, Сергей Погосов (II), Олег Корманн, Дарья Дубникова

Описание: Недолго Артур Королев наслаждался своеобразным отдыхом от опасных дел по ликвидации преступных элементов. Ему пришлось столкнуться с предательством друга, что повлекло за собой серьезные проблемы. Судьба усадила Артура за решетку. Но благодаря силе духа он выдержал все свалившиеся на него испытания. На то он и джокер 2 операция капкан станет новой отправной точкой в его приключениях, наполненных запахом пороха и опасностью. Ещё более закаленный и даже озлобленный из-за несправедливости, коснувшейся его лично, он без жалости и сострадания даст бой бандитам. Его методы борьбы пополнятся новыми примочками. Гнев, который вызвал в нем поступок друга сублимировался в агрессию против преступников, но Артур не забывает, кто является основной
Релиз от:
/ Сэмпл
Качество: SATRip
Формат: AVI
Видео кодек: XviD
Аудио кодек: AC3
Видео: 720x400 (16:91), 25.000 fps, XviD build 73, 1 611 Kbps, 0.22 Bits/Pixel
Аудио: 48 kHz, AC3 Dolby Digital, 2 ch, 192 Kbps

Реклама: Нет
General
Complete name : Downloads\Dzoker.2.2016.SATRip.Files-x
Format : AVI
Format/Info : Audio Video Interleave
File size : 600 MiB
Duration : 46mn 17s
Overall bit rate : 1 812 Kbps
Writing application : VirtualDubMod 1.5.10.3 | www.virtualdub-fr.org || (build 2550/release)
Writing library : VirtualDubMod build 2550/release
Video #0
ID : 0
Format : MPEG-4 Visual
Format profile : Advanced Simple@L5
Format settings, BVOP : 1
Format settings, QPel : No
Format settings, GMC : No warppoints
Format settings, Matrix : Custom
Codec ID : XVID
Codec ID/Hint : XviD
Duration : 46mn 17s
Bit rate : 1 611 Kbps
Width : 720 pixels
Height : 400 pixels
Display aspect ratio : 16:9
Frame rate : 25.000 fps
Color space : YUV
Chroma subsampling : 4:2:0
Bit depth : 8 bits
Scan type : Progressive
Compression mode : Lossy
Bits/(Pixel*Frame) : 0.224
Stream size : 533 MiB (89%)
Writing library : XviD 73
Audio #1
ID : 1
Format : AC-3
Format/Info : Audio Coding 3
Mode extension : CM (complete main)
Format settings, Endianness : Big
Codec ID : 2000
Duration : 46mn 17s
Bit rate mode : Constant
Bit rate : 192 Kbps
Channel(s) : 2 channels
Channel positions : Front: L R
Sampling rate : 48.0 KHz
Bit depth : 16 bits
Compression mode : Lossy
Stream size : 63.6 MiB (11%)
Alignment : Split accross interleaves
Interleave, duration : 40 ms (1.00 video frame)
Interleave, preload duration : 500 ms
Правила, инструкции, FAQ!!!
Торрент  Добавлен [12 дек 2016, 21:19] Скачать торрент Магнет ссылка
Скачать торрент
12.43 КБ

Статус
Проверен 
 
Размер  2.34 ГБ
Приватный: Нет (DHT включён)
.torrent скачан  12
Как залить торрент? | Как скачать Torrent? | Как смотреть и слушать онлайн?  
Гость
 



Вернуться в Отечественные сериалы

Кто сейчас на конференции

Сейчас этот форум просматривают: нет зарегистрированных пользователей и гости: 0