[SACD-R][OF] Dvorak: Symphony No. 7 in D minor Op. 70; The Golden Spinning Wheel / Zlaty kolovrat Op. 109 (Netherlands Philharmonic Orchestra, Yakov Kreizberg) - 2009 (Classical/Orchestral)


Статистика раздачи
Размер: 3.22 ГБ | Добавлен: 04 ноя 2019, 08:23 | Скачали: 3
Сидеров: 12  [0 байт/сек]    Личеров: 4  [0 байт/сек]

Сообщение Гость » 04 ноя 2019, 08:23

Dvořák:
Symphony No. 7 in D minor Op. 70
Zlatý kolovrat Op. 109

Netherlands Philharmonic Orchestra Amsterdam
Yakov Kreizberg

Формат записи/Источник записи: [SACD-R][OF]
Наличие водяных знаков: Нет
Год издания/переиздания диска: 2009
Жанр: Classical/Orchestral
Издатель (лейбл): PentaTone
Продолжительность: 01:05:41
Наличие сканов в содержимом раздачи: Только обложка альбома
Треклист:
Antonin Dvořák (1841-1904)
Symphony No. 7
01] Allegro maestoso
02] Poco Adagio
03] Scherzo - Vivace
04] Finale - Allegro
05] Zlatэ kolovrat Op. 109 (The Golden Spinning Wheel - Das Goldene Spinnrad)
Vadim Tsibulevsky, violin
Netherlands Philharmonic Orchestra, Amsterdam
Yakov Kreizberg
Контейнер: ISO (*.iso)
Тип рипа: image
Разрядность: 64(2,8 MHz/1 Bit)
Формат: DST64
Количество каналов: 5.0, 2.0
Доп. информация: PTC 5186 082
Источник (релизер): собственный рип
https://www.sa-cd.net/showtitle/5897
https://www.music-island.pl/opisplyty-PTC+5186082.html
Код: Выделить всё
foobar2000 1.3.13 / Замер динамического диапазона (DR) 1.1.1
Дата отчёта:  2019-10-19 17:59:42
--------------------------------------------------------------------------------
Анализ:   Netherlands Philharmonic Orchestra Amsterdam, conducted by: Yakov Kreizberg / Dvorбk: Symphony No. 7 in D minor Op. 70 ¤ Zlatэ kolovrat Op. 109
--------------------------------------------------------------------------------
DR         Пики         RMS           Продолжительность трека
--------------------------------------------------------------------------------
DR14      -5.69 дБ   -28.90 дБ     10:32 01-Symphony No. 7 - Allegro maestoso
DR15      -6.50 дБ   -32.12 дБ      9:46 02-Symphony No. 7 - Poco Adagio
DR14      -7.67 дБ   -29.40 дБ      7:27 03-Symphony No. 7 - Scherzo - Vivace
DR14      -4.59 дБ   -27.05 дБ      9:37 04-Symphony No. 7 - Finale - Allegro
DR16      -6.31 дБ   -30.41 дБ     28:18 05-Zlatэ kolovrat Op. 109 (The Golden Spinning Wheel - Das Goldene Spinnrad)
--------------------------------------------------------------------------------
Количество треков: 5
Реальные значения DR: DR15
Частота:   2822400 Гц / Частота PCM: 88200 Гц
Каналов:   5
Разрядность:   24
Битрейт:   14112 кбит/с
Кодек:   DST64
================================================================================
--------------------------------------------------------------------------------
Анализ:   Netherlands Philharmonic Orchestra Amsterdam, conducted by: Yakov Kreizberg / Dvorбk: Symphony No. 7 in D minor Op. 70 ¤ Zlatэ kolovrat Op. 109
--------------------------------------------------------------------------------
DR         Пики         RMS           Продолжительность трека
--------------------------------------------------------------------------------
DR14      -6.61 дБ   -26.11 дБ     10:32 01-Symphony No. 7 - Allegro maestoso
DR16      -6.39 дБ   -29.04 дБ      9:46 02-Symphony No. 7 - Poco Adagio
DR14      -6.56 дБ   -26.49 дБ      7:27 03-Symphony No. 7 - Scherzo - Vivace
DR14      -5.02 дБ   -24.17 дБ      9:37 04-Symphony No. 7 - Finale - Allegro
DR17      -4.60 дБ   -28.25 дБ     28:18 05-Zlatэ kolovrat Op. 109 (The Golden Spinning Wheel - Das Goldene Spinnrad)
--------------------------------------------------------------------------------
Количество треков: 5
Реальные значения DR: DR15
Частота:   2822400 Гц / Частота PCM: 88200 Гц
Каналов:   2
Разрядность:   24
Битрейт:   5645 кбит/с
Кодек:   DST64
================================================================================
AllMusic Review by Mike D. Brownell
Russian-born conductor Yakov Kreizberg and the Netherlands Philharmonic Orchestra Amsterdam continue their successful survey of the late, great symphonies of Antonin Dvorák on the PentaTone label. As with other volumes, this installment includes representatives from Dvorák's output that seem to be at odds with one another. For starters, we have the magnificent, dramatic Seventh Symphony, written very much in the more conservative, Germanic style. This is followed by one of Dvorák's symphonic poems -- The Golden Spinning Wheel, Op. 109 -- which some felt contradicted the traditionalist approach of Brahms in favor of more a "programmatic" approach. In truth, listeners will notice a rather dramatic difference between these two works, but this speaks only of Dvorák's immense flexibility. In both cases, Kreizberg and orchestra do a masterful job of capturing the unique characteristics of both compositions. The Seventh Symphony is played powerfully and with immense drive without seeming exaggerated. Balance within the orchestra is exceptionally well-controlled, allowing the important inner voices to be heard clearly even during full tutti fortissimos. The Golden Spinning Wheel finds Kreizberg delivering fine attention to detail, bringing forth the subtle nuances of the score that are integral to its relationship to the original folk story. PentaTone's sound is clear, present, and vigorous; listeners using the multichannel SACD track will be further treated to an all-encompassing sound that puts them in the center of the orchestra.
Правила, инструкции, FAQ!!!
Торрент  Добавлен [04 ноя 2019, 08:23] Скачать торрент Магнет ссылка
Скачать торрент
65.23 КБ

Статус
Проверен 
 
Размер  3.22 ГБ
Приватный: Нет (DHT включён)
.torrent скачан  3
Как залить торрент? | Как скачать Torrent? | Как смотреть и слушать онлайн?  
Гость
 


Вернуться в Классика и классика в современной обработке (многоканальная музыка)

Кто сейчас на конференции

Сейчас этот форум просматривают: нет зарегистрированных пользователей и гости: 0