(Eclectic Prog, Avant Prog) [WEB] Me El-Ma - Bowing Crosses - 2018, FLAC (tracks+.cue), lossless


Статистика раздачи
Размер: 365.8 МБ | Добавлен: 09 ноя 2019, 12:38 | Скачали: 0
Сидеров: 0  [0 байт/сек]    Личеров: 0  [0 байт/сек]

Сообщение Гость » 09 ноя 2019, 12:38



Me El-Ma - Bowing Crosses - 2018


Жанр: Eclectic Prog, Avant Prog
Носитель: WEB
Страна-производитель диска (релиза): Israel
Год издания оригинала: 2018
Издатель (лейбл): Self released
Номер по каталогу: None
Страна исполнителя (группы) : Israel
Аудио кодек: FLAC (*.flac)
Тип рипа: (tracks)
Битрейт аудио: lossless
Наличие сканов в содержимом раздачи: full scans, pdf
Продолжительность: 48:57
Источник (релизер): REDacted
Трэклист:
1. Bowing Crosses. 4:49
2. Without Further Ado. 5:40
3. Please do as You please. 5:08
4. Eternity Heart. 4:05
5. Between Constant Names. 6:32
6. Perception Perfection Satisfaction. 7:57
7. The Magician Oath. 7:00
8. We are Robots made of Robots. 7:42
Код: Выделить всё
-----------------------
DON'T MODIFY THIS FILE
-----------------------
PERFORMER: auCDtect Task Manager, ver. 1.6.0 RC1 build 1.6.0.1
Copyright (c) 2008-2010 y-soft. All rights reserved
[url=http://y-soft.org]http://y-soft.org[/url]
ANALYZER: auCDtect: CD records authenticity detector, version 0.8.2
Copyright (c) 2004 Oleg Berngardt. All rights reserved.
Copyright (c) 2004 Alexander Djourik. All rights reserved.
FILE: 01. Bowing Crosses.flac
  Size: 38694712 Hash: 1B3C1ED4435AF632A98C6EFBC196144F Accuracy: -m0
  Conclusion: CDDA 100%
  Signature: 81A13EE1D307752AD665B28F2D51DFDA4EE4D75D
FILE: 02. Without Further Ado.flac
  Size: 39941102 Hash: 4FA2BB64E589240B4C622C5BA401D80F Accuracy: -m0
  Conclusion: CDDA 100%
  Signature: 67B0192C0C0079E591C4F1D7643ED9C4BDD5B174
FILE: 03. Please do as You please.flac
  Size: 37874820 Hash: 3EE18DE90D22D56C60A2AEB32E8BDCB3 Accuracy: -m0
  Conclusion: CDDA 100%
  Signature: 79DAF5EDE5D3A2F38219F78E36A6DFD41F61F50D
FILE: 04. Eternity Heart.flac
  Size: 26540030 Hash: 2AD342A25784CCB2FB0CE5DE80DC7E05 Accuracy: -m0
  Conclusion: CDDA 100%
  Signature: 1EB319B682FF36FE3905E157D89EB5EE8528A9E3
FILE: 05. Between Constant Names.flac
  Size: 48044666 Hash: 41DDB42FEEF02507F91ED180D48856E7 Accuracy: -m0
  Conclusion: CDDA 100%
  Signature: 2BB3CA7024A0BE2618FC1FDA5AC47FCDA1164056
FILE: 06. Perception Perfection Satisfaction.flac
  Size: 57146283 Hash: 2430F90A8E1E84AB4BE9670B0507B850 Accuracy: -m0
  Conclusion: CDDA 100%
  Signature: A602620DCE9D80CB507A4D3C3C6EF86CACD44C6E
FILE: 07. The Magician Oath.flac
  Size: 45230974 Hash: 7994F96B9FA0C9585917A45EF2A41221 Accuracy: -m0
  Conclusion: CDDA 43%
  Signature: C9450D9CB2272705EBD719A5E8E70C1DC44B561F
FILE: 08. We are Robots made of Robots.flac
  Size: 48096595 Hash: F4353C94D5B03581E47EBE4DDD5DFF46 Accuracy: -m0
  Conclusion: CDDA 99%
  Signature: F321C2F30C29DBF2F9849A2B3EE4E86FCEFB1F38
Код: Выделить всё
foobar2000 1.3.8 / Dynamic Range Meter 1.1.1
log date: 2018-08-25 01:03:56
--------------------------------------------------------------------------------
Analyzed: Me El-Ma / Bowing Crosses
--------------------------------------------------------------------------------
DR         Peak         RMS     Duration Track
--------------------------------------------------------------------------------
DR6        0.00 dB    -7.65 dB      4:50 01-Bowing Crosses
DR8        0.00 dB   -10.06 dB      5:40 02-Without Further Ado
DR7       -0.67 dB    -8.59 dB      5:09 03-Please do as You please
DR6        0.00 dB    -7.75 dB      4:06 04-Eternity Heart
DR7        0.00 dB    -8.32 dB      6:32 05-Between Constant Names
DR6        0.00 dB    -8.38 dB      7:57 06-Perception Perfection Satisfaction
DR9       -0.62 dB   -11.08 dB      7:01 07-The Magician Oath
DR10      -0.02 dB   -12.48 dB      7:43 08-We are Robots made of Robots
--------------------------------------------------------------------------------
Number of tracks:  8
Official DR value: DR7
Samplerate:        44100 Hz
Channels:          2
Bits per sample:   16
Bitrate:           828 kbps
Codec:             FLAC
================================================================================

Produced by, Compositions & Lyrics, Arrangements, Programming, Performance, Recording & Mix, Cover design & more.. - Me El-Ma
Singing - Virja

Если нет сидов - пришлите мне ЛС
Правила, инструкции, FAQ!!!
Торрент  Добавлен [09 ноя 2019, 12:38] Скачать торрент Магнет ссылка
Скачать торрент
15.38 КБ

Статус
Проверен 
 
Размер  365.8 МБ
Приватный: Нет (DHT включён)
.torrent скачан  0
Как залить торрент? | Как скачать Torrent? | Как смотреть и слушать онлайн?  
Гость
 


Вернуться в Progressive & Art-Rock

Кто сейчас на конференции

Сейчас этот форум просматривают: нет зарегистрированных пользователей и гости: 3