(Hard Rock) Bon Jovi - Greatest Hits The Ultimate Collection (2CD) - 2010, FLAC (tracks+.cue) lossless


Статистика раздачи
Размер: 1.01 ГБ | Добавлен: 14 июн 2019, 01:23 | Скачали: 2
Сидеров: 72  [0 байт/сек]    Личеров: 17  [0 байт/сек]

Сообщение Гость » 14 июн 2019, 01:23

Bon Jovi / Greatest Hits The Ultimate Collection
Жанр: Hard Rock
Страна-производитель диска: EU
Год издания диска: 2010
Издатель (лейбл): Island
Номер по каталогу: 602527523347
Страна: USA
Аудио кодек: FLAC (*.flac)
Тип рипа: tracks+.cue
Битрейт аудио: lossless
Продолжительность: 1:14:15 + 1:08:18
Источник (релизер): yanny123 (Demonoid.com)
Наличие сканов в содержимом раздачи: да
Треклист:
1. Livin' On A Prayer (4:10)
2. You Give Love A Bad Name (3:43)
3. It's My Life (3:44)
4. Have A Nice Day (3:48)
5. Wanted Dead Or Alive (5:08)
6. Bad Medicine (5:16)
7. We Weren't Born To Follow (4:04)
8. I'll Be There For You (5:46)
9. Born To Be My Baby (4:40)
10. Bed Of Roses (6:35)
11. Who Says You Can't Go Home (4:40)
12. Lay Your Hands On Me (3:49)
13. Always (5:53)
14. In These Arms (5:19)
15. What Do You Got? (3:47)
16. No Apologies (3:44)
1. Runaway (3:51)
2. Someday I'll Be Saturday Night (4:38)
3. Lost Highway (4:13)
4. I'll Sleep When I'm Dead (4:41)
5. In And Out Of Love (4:26)
6. Keep The Faith (5:43)
7. When We Were Beautiful (5:17)
8. Blaze Of Glory (5:39)
9. This Ain't A Love Song (5:05)
10. These Days (6:27)
11. (You Want To) Make A Memory (4:37)
12. Blood On Blood (6:16)
13. This Is Love This Is Life (3:25)
14. The More Things Change (3:53)

Код: Выделить всё
Exact Audio Copy V0.99 prebeta 5 from 4. May 2009
EAC extraction logfile from 4. November 2010, 17:49
Bon Jovi / Greatest Hits
Used drive  : Optiarc DVD RW AD-5170A   Adapter: 0  ID: 0
Read mode               : Secure
Utilize accurate stream : Yes
Defeat audio cache      : Yes
Make use of C2 pointers : No
Read offset correction                      : 48
Overread into Lead-In and Lead-Out          : No
Fill up missing offset samples with silence : Yes
Delete leading and trailing silent blocks   : No
Null samples used in CRC calculations       : No
Used interface                              : Native Win32 interface for Win NT & 2000
Gap handling                                : Appended to previous track
Used output format              : User Defined Encoder
Selected bitrate                : 768 kBit/s
Quality                         : High
Add ID3 tag                     : No
Command line compressor         : C:\Program Files\Exact Audio Copy\FLAC\FLAC.EXE
Additional command line options : -6 -V -T "ARTIST=%a" -T "TITLE=%t" -T "ALBUM=%g" -T "DATE=%y" -T "TRACKNUMBER=%n" -T "GENRE=%m" -T "COMMENT=%e" %s -o %d
TOC of the extracted CD
     Track |   Start  |  Length  | Start sector | End sector
    ---------------------------------------------------------
        1  |  0:00.00 |  4:10.47 |         0    |    18796
        2  |  4:10.47 |  3:43.11 |     18797    |    35532
        3  |  7:53.58 |  3:44.45 |     35533    |    52377
        4  | 11:38.28 |  3:48.69 |     52378    |    69546
        5  | 15:27.22 |  5:08.42 |     69547    |    92688
        6  | 20:35.64 |  5:16.39 |     92689    |   116427
        7  | 25:52.28 |  4:04.36 |    116428    |   134763
        8  | 29:56.64 |  5:46.29 |    134764    |   160742
        9  | 35:43.18 |  4:40.34 |    160743    |   181776
       10  | 40:23.52 |  6:35.39 |    181777    |   211440
       11  | 46:59.16 |  4:40.25 |    211441    |   232465
       12  | 51:39.41 |  3:49.22 |    232466    |   249662
       13  | 55:28.63 |  5:53.08 |    249663    |   276145
       14  | 61:21.71 |  5:19.22 |    276146    |   300092
       15  | 66:41.18 |  3:47.20 |    300093    |   317137
       16  | 70:28.38 |  3:44.64 |    317138    |   334001
Track  1
     Filename C:\Users\Ian\Downloads\Greatest Hits\CD1\01 - Livin' On A Prayer.wav
     Pre-gap length  0:00:02.00
     Peak level 97.0 %
     Track quality 100.0 %
     Test CRC 2483B7F1
     Copy CRC 2483B7F1
     Copy OK
Track  2
     Filename C:\Users\Ian\Downloads\Greatest Hits\CD1\02 - You Give Love A Bad Name.wav
     Peak level 97.0 %
     Track quality 99.9 %
     Test CRC 32FD6C79
     Copy CRC 32FD6C79
     Copy OK
Track  3
     Filename C:\Users\Ian\Downloads\Greatest Hits\CD1\03 - It's My Life.wav
     Peak level 97.0 %
     Track quality 100.0 %
     Test CRC C1BA1619
     Copy CRC C1BA1619
     Copy OK
Track  4
     Filename C:\Users\Ian\Downloads\Greatest Hits\CD1\04 - Have A Nice Day.wav
     Peak level 97.0 %
     Track quality 100.0 %
     Test CRC CDABB366
     Copy CRC CDABB366
     Copy OK
Track  5
     Filename C:\Users\Ian\Downloads\Greatest Hits\CD1\05 - Wanted Dead Or Alive.wav
     Peak level 97.0 %
     Track quality 100.0 %
     Test CRC DE669494
     Copy CRC DE669494
     Copy OK
Track  6
     Filename C:\Users\Ian\Downloads\Greatest Hits\CD1\06 - Bad Medicine.wav
     Peak level 97.0 %
     Track quality 100.0 %
     Test CRC D5083FF7
     Copy CRC D5083FF7
     Copy OK
Track  7
     Filename C:\Users\Ian\Downloads\Greatest Hits\CD1\07 - We Weren't Born To Follow.wav
     Peak level 94.3 %
     Track quality 100.0 %
     Test CRC 161D2BF2
     Copy CRC 161D2BF2
     Copy OK
Track  8
     Filename C:\Users\Ian\Downloads\Greatest Hits\CD1\08 - I'll Be There For You.wav
     Peak level 97.0 %
     Track quality 100.0 %
     Test CRC 4D0738BA
     Copy CRC 4D0738BA
     Copy OK
Track  9
     Filename C:\Users\Ian\Downloads\Greatest Hits\CD1\09 - Born To Be My Baby.wav
     Peak level 97.0 %
     Track quality 99.9 %
     Test CRC E95724B2
     Copy CRC E95724B2
     Copy OK
Track 10
     Filename C:\Users\Ian\Downloads\Greatest Hits\CD1\10 - Bed Of Roses.wav
     Peak level 100.0 %
     Track quality 100.0 %
     Test CRC 33D0B1DB
     Copy CRC 33D0B1DB
     Copy OK
Track 11
     Filename C:\Users\Ian\Downloads\Greatest Hits\CD1\11 - Who Says You Can't Go Home.wav
     Peak level 91.6 %
     Track quality 100.0 %
     Test CRC 82ACEECC
     Copy CRC 82ACEECC
     Copy OK
Track 12
     Filename C:\Users\Ian\Downloads\Greatest Hits\CD1\12 - Lay Your Hands On Me.wav
     Peak level 100.0 %
     Track quality 100.0 %
     Test CRC 140601A2
     Copy CRC 140601A2
     Copy OK
Track 13
     Filename C:\Users\Ian\Downloads\Greatest Hits\CD1\13 - Always.wav
     Peak level 99.8 %
     Track quality 100.0 %
     Test CRC BCF3C8C9
     Copy CRC BCF3C8C9
     Copy OK
Track 14
     Filename C:\Users\Ian\Downloads\Greatest Hits\CD1\14 - In These Arms.wav
     Peak level 97.0 %
     Track quality 99.9 %
     Test CRC BC2A3096
     Copy CRC BC2A3096
     Copy OK
Track 15
     Filename C:\Users\Ian\Downloads\Greatest Hits\CD1\15 - What Do You Got .wav
     Peak level 99.9 %
     Track quality 100.0 %
     Test CRC DA543048
     Copy CRC DA543048
     Copy OK
Track 16
     Filename C:\Users\Ian\Downloads\Greatest Hits\CD1\16 - No Apologies.wav
     Peak level 96.5 %
     Track quality 100.0 %
     Test CRC A575C195
     Copy CRC A575C195
     Copy OK
No errors occurred
End of status report
Код: Выделить всё
Exact Audio Copy V0.99 prebeta 5 from 4. May 2009
EAC extraction logfile from 4. November 2010, 18:20
Bon Jovi / Greatest Hits - The Ultimate
Used drive  : Optiarc DVD RW AD-5170A   Adapter: 0  ID: 0
Read mode               : Secure
Utilize accurate stream : Yes
Defeat audio cache      : Yes
Make use of C2 pointers : No
Read offset correction                      : 48
Overread into Lead-In and Lead-Out          : No
Fill up missing offset samples with silence : Yes
Delete leading and trailing silent blocks   : No
Null samples used in CRC calculations       : No
Used interface                              : Native Win32 interface for Win NT & 2000
Gap handling                                : Appended to previous track
Used output format              : User Defined Encoder
Selected bitrate                : 768 kBit/s
Quality                         : High
Add ID3 tag                     : No
Command line compressor         : C:\Program Files\Exact Audio Copy\FLAC\FLAC.EXE
Additional command line options : -6 -V -T "ARTIST=%a" -T "TITLE=%t" -T "ALBUM=%g" -T "DATE=%y" -T "TRACKNUMBER=%n" -T "GENRE=%m" -T "COMMENT=%e" %s -o %d
TOC of the extracted CD
     Track |   Start  |  Length  | Start sector | End sector
    ---------------------------------------------------------
        1  |  0:00.00 |  3:51.47 |         0    |    17371
        2  |  3:51.47 |  4:38.57 |     17372    |    38278
        3  |  8:30.29 |  4:13.53 |     38279    |    57306
        4  | 12:44.07 |  4:41.40 |     57307    |    78421
        5  | 17:25.47 |  4:26.11 |     78422    |    98382
        6  | 21:51.58 |  5:43.37 |     98383    |   124144
        7  | 27:35.20 |  5:17.60 |    124145    |   147979
        8  | 32:53.05 |  5:39.14 |    147980    |   173418
        9  | 38:32.19 |  5:05.53 |    173419    |   196346
       10  | 43:37.72 |  6:27.20 |    196347    |   225391
       11  | 50:05.17 |  4:37.32 |    225392    |   246198
       12  | 54:42.49 |  6:16.02 |    246199    |   274400
       13  | 60:58.51 |  3:25.18 |    274401    |   289793
       14  | 64:23.69 |  3:53.27 |    289794    |   307295
Track  1
     Filename C:\Users\Ian\Downloads\Greatest Hits\CD2\01 - Runaway.wav
     Pre-gap length  0:00:02.00
     Peak level 97.0 %
     Track quality 100.0 %
     Test CRC B474714C
     Copy CRC B474714C
     Copy OK
Track  2
     Filename C:\Users\Ian\Downloads\Greatest Hits\CD2\02 - Someday I'll Be Saturday Night.wav
     Peak level 100.0 %
     Track quality 100.0 %
     Test CRC BFF494D8
     Copy CRC BFF494D8
     Copy OK
Track  3
     Filename C:\Users\Ian\Downloads\Greatest Hits\CD2\03 - Lost Highway.wav
     Peak level 97.0 %
     Track quality 99.9 %
     Test CRC B41D3C40
     Copy CRC B41D3C40
     Copy OK
Track  4
     Filename C:\Users\Ian\Downloads\Greatest Hits\CD2\04 - I'll Sleep When I'm Dead.wav
     Peak level 97.0 %
     Track quality 100.0 %
     Test CRC CD6C685C
     Copy CRC CD6C685C
     Copy OK
Track  5
     Filename C:\Users\Ian\Downloads\Greatest Hits\CD2\05 - In And Out Of Love.wav
     Peak level 97.0 %
     Track quality 100.0 %
     Test CRC 8419E11E
     Copy CRC 8419E11E
     Copy OK
Track  6
     Filename C:\Users\Ian\Downloads\Greatest Hits\CD2\06 - Keep The Faith.wav
     Peak level 97.0 %
     Track quality 100.0 %
     Test CRC 48ECACA5
     Copy CRC 48ECACA5
     Copy OK
Track  7
     Filename C:\Users\Ian\Downloads\Greatest Hits\CD2\07 - When We Were Beautiful.wav
     Peak level 99.9 %
     Track quality 99.9 %
     Test CRC DA0F3B39
     Copy CRC DA0F3B39
     Copy OK
Track  8
     Filename C:\Users\Ian\Downloads\Greatest Hits\CD2\08 - Blaze Of Glory.wav
     Peak level 100.0 %
     Track quality 100.0 %
     Test CRC 3B637671
     Copy CRC 3B637671
     Copy OK
Track  9
     Filename C:\Users\Ian\Downloads\Greatest Hits\CD2\09 - This Ain't A Love Song.wav
     Peak level 97.0 %
     Track quality 100.0 %
     Test CRC 60B26D30
     Copy CRC 60B26D30
     Copy OK
Track 10
     Filename C:\Users\Ian\Downloads\Greatest Hits\CD2\10 - These Days.wav
     Peak level 97.0 %
     Track quality 100.0 %
     Test CRC 0226CC94
     Copy CRC 0226CC94
     Copy OK
Track 11
     Filename C:\Users\Ian\Downloads\Greatest Hits\CD2\11 - (You Want To) Make A Memory.wav
     Peak level 97.0 %
     Track quality 100.0 %
     Test CRC A3671097
     Copy CRC A3671097
     Copy OK
Track 12
     Filename C:\Users\Ian\Downloads\Greatest Hits\CD2\12 - Blood On Blood.wav
     Peak level 97.0 %
     Track quality 100.0 %
     Test CRC 17B49332
     Copy CRC 17B49332
     Copy OK
Track 13
     Filename C:\Users\Ian\Downloads\Greatest Hits\CD2\13 - This Is Love This Is Life.wav
     Peak level 95.4 %
     Track quality 99.5 %
     Test CRC F5851C5D
     Copy CRC F5851C5D
     Copy OK
Track 14
     Filename C:\Users\Ian\Downloads\Greatest Hits\CD2\14 - The More Things Change.wav
     Peak level 99.9 %
     Track quality 100.0 %
     Test CRC C19635BA
     Copy CRC C19635BA
     Copy OK
No errors occurred
End of status report
Код: Выделить всё
REM GENRE Rock
REM DATE 2010
REM DISCID C3116510
REM COMMENT "ExactAudioCopy v0.99pb5"
PERFORMER "Bon Jovi"
TITLE "Greatest Hits - The Ultimate (1 of 2)"
FILE "01 - Livin' On A Prayer.wav" WAVE
  TRACK 01 AUDIO
    TITLE "Livin' On A Prayer"
    PERFORMER "Bon Jovi"
    INDEX 01 00:00:00
FILE "02 - You Give Love A Bad Name.wav" WAVE
  TRACK 02 AUDIO
    TITLE "You Give Love A Bad Name"
    PERFORMER "Bon Jovi"
    INDEX 01 00:00:00
FILE "03 - It's My Life.wav" WAVE
  TRACK 03 AUDIO
    TITLE "It's My Life"
    PERFORMER "Bon Jovi"
    INDEX 01 00:00:00
FILE "04 - Have A Nice Day.wav" WAVE
  TRACK 04 AUDIO
    TITLE "Have A Nice Day"
    PERFORMER "Bon Jovi"
    INDEX 01 00:00:00
FILE "05 - Wanted Dead Or Alive.wav" WAVE
  TRACK 05 AUDIO
    TITLE "Wanted Dead Or Alive"
    PERFORMER "Bon Jovi"
    INDEX 01 00:00:00
FILE "06 - Bad Medicine.wav" WAVE
  TRACK 06 AUDIO
    TITLE "Bad Medicine"
    PERFORMER "Bon Jovi"
    INDEX 01 00:00:00
FILE "07 - We Weren't Born To Follow.wav" WAVE
  TRACK 07 AUDIO
    TITLE "We Weren't Born To Follow"
    PERFORMER "Bon Jovi"
    INDEX 01 00:00:00
FILE "08 - I'll Be There For You.wav" WAVE
  TRACK 08 AUDIO
    TITLE "I'll Be There For You"
    PERFORMER "Bon Jovi"
    INDEX 01 00:00:00
FILE "09 - Born To Be My Baby.wav" WAVE
  TRACK 09 AUDIO
    TITLE "Born To Be My Baby"
    PERFORMER "Bon Jovi"
    INDEX 01 00:00:00
FILE "10 - Bed Of Roses.wav" WAVE
  TRACK 10 AUDIO
    TITLE "Bed Of Roses"
    PERFORMER "Bon Jovi"
    INDEX 01 00:00:00
FILE "11 - Who Says You Can't Go Home.wav" WAVE
  TRACK 11 AUDIO
    TITLE "Who Says You Can't Go Home"
    PERFORMER "Bon Jovi"
    INDEX 01 00:00:00
FILE "12 - Lay Your Hands On Me.wav" WAVE
  TRACK 12 AUDIO
    TITLE "Lay Your Hands On Me"
    PERFORMER "Bon Jovi"
    INDEX 01 00:00:00
FILE "13 - Always.wav" WAVE
  TRACK 13 AUDIO
    TITLE "Always"
    PERFORMER "Bon Jovi"
    INDEX 01 00:00:00
FILE "14 - In These Arms.wav" WAVE
  TRACK 14 AUDIO
    TITLE "In These Arms"
    PERFORMER "Bon Jovi"
    INDEX 01 00:00:00
FILE "15 - What Do You Got .wav" WAVE
  TRACK 15 AUDIO
    TITLE "What Do You Got?"
    PERFORMER "Bon Jovi"
    INDEX 01 00:00:00
FILE "16 - No Apologies.wav" WAVE
  TRACK 16 AUDIO
    TITLE "No Apologies"
    PERFORMER "Bon Jovi"
    INDEX 01 00:00:00
Код: Выделить всё
REM GENRE Rock
REM DATE 2010
REM DISCID BE10010E
REM COMMENT "ExactAudioCopy v0.99pb5"
PERFORMER "Bon Jovi"
TITLE "Greatest Hits - The Ultimate"
FILE "01 - Runaway.wav" WAVE
  TRACK 01 AUDIO
    TITLE "Runaway"
    PERFORMER "Bon Jovi"
    INDEX 01 00:00:00
FILE "02 - Someday I'll Be Saturday Night.wav" WAVE
  TRACK 02 AUDIO
    TITLE "Someday I'll Be Saturday Night"
    PERFORMER "Bon Jovi"
    INDEX 01 00:00:00
FILE "03 - Lost Highway.wav" WAVE
  TRACK 03 AUDIO
    TITLE "Lost Highway"
    PERFORMER "Bon Jovi"
    INDEX 01 00:00:00
FILE "04 - I'll Sleep When I'm Dead.wav" WAVE
  TRACK 04 AUDIO
    TITLE "I'll Sleep When I'm Dead"
    PERFORMER "Bon Jovi"
    INDEX 01 00:00:00
FILE "05 - In And Out Of Love.wav" WAVE
  TRACK 05 AUDIO
    TITLE "In And Out Of Love"
    PERFORMER "Bon Jovi"
    INDEX 01 00:00:00
FILE "06 - Keep The Faith.wav" WAVE
  TRACK 06 AUDIO
    TITLE "Keep The Faith"
    PERFORMER "Bon Jovi"
    INDEX 01 00:00:00
FILE "07 - When We Were Beautiful.wav" WAVE
  TRACK 07 AUDIO
    TITLE "When We Were Beautiful"
    PERFORMER "Bon Jovi"
    INDEX 01 00:00:00
FILE "08 - Blaze Of Glory.wav" WAVE
  TRACK 08 AUDIO
    TITLE "Blaze Of Glory"
    PERFORMER "Bon Jovi"
    INDEX 01 00:00:00
FILE "09 - This Ain't A Love Song.wav" WAVE
  TRACK 09 AUDIO
    TITLE "This Ain't A Love Song"
    PERFORMER "Bon Jovi"
    INDEX 01 00:00:00
FILE "10 - These Days.wav" WAVE
  TRACK 10 AUDIO
    TITLE "These Days"
    PERFORMER "Bon Jovi"
    INDEX 01 00:00:00
FILE "11 - (You Want To) Make A Memory.wav" WAVE
  TRACK 11 AUDIO
    TITLE "(You Want To) Make A Memory"
    PERFORMER "Bon Jovi"
    INDEX 01 00:00:00
FILE "12 - Blood On Blood.wav" WAVE
  TRACK 12 AUDIO
    TITLE "Blood On Blood"
    PERFORMER "Bon Jovi"
    INDEX 01 00:00:00
FILE "13 - This Is Love This Is Life.wav" WAVE
  TRACK 13 AUDIO
    TITLE "This Is Love This Is Life"
    PERFORMER "Bon Jovi"
    INDEX 01 00:00:00
FILE "14 - The More Things Change.wav" WAVE
  TRACK 14 AUDIO
    TITLE "The More Things Change"
    PERFORMER "Bon Jovi"
    INDEX 01 00:00:00
Правила, инструкции, FAQ!!!
Торрент  Добавлен [14 июн 2019, 01:23] Скачать торрент Магнет ссылка
Скачать торрент
12.97 КБ

Статус
Проверен 
 
Размер  1.01 ГБ
Приватный: Нет (DHT включён)
.torrent скачан  2
Как залить торрент? | Как скачать Torrent? | Как смотреть и слушать онлайн?  
Гость
 



Вернуться в AOR (Melodic Hard Rock, Arena rock)

Кто сейчас на конференции

Сейчас этот форум просматривают: нет зарегистрированных пользователей и гости: 0