(Hard Rock) [CD] Pink Cream 69 - Headstrong - 2017, FLAC (image+.cue), lossless


Статистика раздачи
Размер: 741.65 МБ | Добавлен: 14 июн 2019, 01:21 | Скачали: 0
Сидеров: 1  [0 байт/сек]    Личеров: 1  [0 байт/сек]

Сообщение Гость » 14 июн 2019, 01:21

Pink Cream 69 / Headstrong
Жанр: Hard Rock
Носитель: CD
Страна-производитель диска (релиза): Japan
Год издания: 2017
Издатель (лейбл): Frontiers
Страна исполнителя (группы): Germany
Аудиокодек: FLAC (*.flac)
Тип рипа: image+.cue
Битрейт аудио: lossless
Продолжительность: 01:30:45
Источник (релизер): Найдено в сети
Наличие сканов в содержимом раздачи: да
Треклист:
01.We Bow To None (3:37)
02.Walls Come Down (4:29)
03.Unite And Divide (4:42)
04.No More Fear (4:11)
05.Man Of Sorrow (5:16)
06.Path Of Destiny (4:45)
07.Vagrant Of The Night (4:39)
08.Bloodsucker (4:00)
09.Whistleblower (4:36)
10.The Other Man (4:43)
11.Vagrant Of The Night (Acoustic Remix) (Bonus Track) (4:02)
01.Special (Live) (4:31)
02.Talk To The Moon (Live) (4:35)
03.Break The Silence (Live) (3:57)
04.Do You Like It Like That (Live) (4:30)
05.The Spirit (Live) (4:55)
06.Livin' My Life For You (Live) (4:02)
07.Wasted Years (Live) (4:23)
08.Welcome The Night (Live) (4:57)
09.Shame (Live) (5:56)
Код: Выделить всё
Exact Audio Copy V1.3 from 2. September 2016
EAC extraction logfile from 1. November 2017, 14:34
Pink Cream 69 / Headstrong (Japan)
Used drive  : MATSHITADVD-RAM UJ8G6   Adapter: 1  ID: 0
Read mode               : Secure
Utilize accurate stream : Yes
Defeat audio cache      : Yes
Make use of C2 pointers : No
Read offset correction                      : 103
Overread into Lead-In and Lead-Out          : No
Fill up missing offset samples with silence : Yes
Delete leading and trailing silent blocks   : No
Null samples used in CRC calculations       : Yes
Used interface                              : Native Win32 interface for Win NT & 2000
Used output format              : User Defined Encoder
Selected bitrate                : 1024 kBit/s
Quality                         : High
Add ID3 tag                     : No
Command line compressor         : C:\Program Files (x86)\Exact Audio Copy\FLAC\FLAC.EXE
Additional command line options : -V -8 -T "Date=%year%" -T"Genre=%genre%" -T"COMMENT=Ripped by Ilijan [MeTaLMaDNeSS.TeaM] " -8 -V %source%
TOC of the extracted CD
     Track |   Start  |  Length  | Start sector | End sector
    ---------------------------------------------------------
        1  |  0:00.00 |  3:36.70 |         0    |    16269
        2  |  3:36.70 |  4:28.40 |     16270    |    36409
        3  |  8:05.35 |  4:41.59 |     36410    |    57543
        4  | 12:47.19 |  4:10.53 |     57544    |    76346
        5  | 16:57.72 |  5:15.55 |     76347    |   100026
        6  | 22:13.52 |  4:44.39 |    100027    |   121365
        7  | 26:58.16 |  4:38.52 |    121366    |   142267
        8  | 31:36.68 |  4:00.12 |    142268    |   160279
        9  | 35:37.05 |  4:36.36 |    160280    |   181015
       10  | 40:13.41 |  4:42.40 |    181016    |   202205
       11  | 44:56.06 |  4:02.06 |    202206    |   220361
Range status and errors
Selected range
     Filename D:\VkniSHIT\Pink Cream 69 - Headstrong (Japan).wav
     Peak level 97.7 %
     Extraction speed 3.9 X
     Range quality 100.0 %
     Test CRC 53CEDF9A
     Copy CRC 53CEDF9A
     Copy OK
No errors occurred
AccurateRip summary
Track  1  not present in database
Track  2  not present in database
Track  3  not present in database
Track  4  not present in database
Track  5  not present in database
Track  6  not present in database
Track  7  not present in database
Track  8  not present in database
Track  9  not present in database
Track 10  not present in database
Track 11  not present in database
None of the tracks are present in the AccurateRip database
End of status report
---- CUETools DB Plugin V2.1.6
[CTDB TOCID: _PrBHIVS27BzysgLPRXfGsnM6wY-] found
Submit result: _PrBHIVS27BzysgLPRXfGsnM6wY- has been confirmed
Track | CTDB Status
  1   | (1/1) Accurately ripped
  2   | (1/1) Accurately ripped
  3   | (1/1) Accurately ripped
  4   | (1/1) Accurately ripped
  5   | (1/1) Accurately ripped
  6   | (1/1) Accurately ripped
  7   | (1/1) Accurately ripped
  8   | (1/1) Accurately ripped
  9   | (1/1) Accurately ripped
 10   | (1/1) Accurately ripped
 11   | (1/1) Accurately ripped
==== Log checksum 1EFDBF8E14D612987814C08E0E52B5F8E01D0BF196134A05311760CF51C384DF ====
Код: Выделить всё
Exact Audio Copy V1.3 from 2. September 2016
EAC extraction logfile from 1. November 2017, 13:58
Pink Cream 69 / Live In Ludwigsburg
Used drive  : MATSHITADVD-RAM UJ8G6   Adapter: 1  ID: 0
Read mode               : Secure
Utilize accurate stream : Yes
Defeat audio cache      : Yes
Make use of C2 pointers : No
Read offset correction                      : 103
Overread into Lead-In and Lead-Out          : No
Fill up missing offset samples with silence : Yes
Delete leading and trailing silent blocks   : No
Null samples used in CRC calculations       : Yes
Used interface                              : Native Win32 interface for Win NT & 2000
Used output format              : User Defined Encoder
Selected bitrate                : 1024 kBit/s
Quality                         : High
Add ID3 tag                     : No
Command line compressor         : C:\Program Files (x86)\Exact Audio Copy\FLAC\FLAC.EXE
Additional command line options : -V -8 -T "Date=%year%" -T"Genre=%genre%" -T"COMMENT=Ripped by Ilijan [MeTaLMaDNeSS.TeaM] " -8 -V %source%
TOC of the extracted CD
     Track |   Start  |  Length  | Start sector | End sector
    ---------------------------------------------------------
        1  |  0:00.00 |  4:31.25 |         0    |    20349
        2  |  4:31.25 |  4:34.46 |     20350    |    40945
        3  |  9:05.71 |  3:56.47 |     40946    |    58692
        4  | 13:02.43 |  4:29.60 |     58693    |    78927
        5  | 17:32.28 |  4:55.13 |     78928    |   101065
        6  | 22:27.41 |  4:02.27 |    101066    |   119242
        7  | 26:29.68 |  4:23.23 |    119243    |   138990
        8  | 30:53.16 |  4:56.38 |    138991    |   161228
        9  | 35:49.54 |  5:55.70 |    161229    |   187923
Range status and errors
Selected range
     Filename D:\VkniSHIT\Pink Cream 69 - Live In Ludwigsburg.wav
     Peak level 97.7 %
     Extraction speed 3.8 X
     Range quality 100.0 %
     Test CRC 13795A5A
     Copy CRC 13795A5A
     Copy OK
No errors occurred
AccurateRip summary
Track  1  not present in database
Track  2  not present in database
Track  3  not present in database
Track  4  not present in database
Track  5  not present in database
Track  6  not present in database
Track  7  not present in database
Track  8  not present in database
Track  9  not present in database
None of the tracks are present in the AccurateRip database
End of status report
---- CUETools DB Plugin V2.1.6
[CTDB TOCID: ZxwbuGHWoO2H.GPEamFQLzZa46s-] found
Submit result: ZxwbuGHWoO2H.GPEamFQLzZa46s- has been confirmed
Track | CTDB Status
  1   | (1/1) Accurately ripped
  2   | (1/1) Accurately ripped
  3   | (1/1) Accurately ripped
  4   | (1/1) Accurately ripped
  5   | (1/1) Accurately ripped
  6   | (1/1) Accurately ripped
  7   | (1/1) Accurately ripped
  8   | (1/1) Accurately ripped
  9   | (1/1) Accurately ripped
==== Log checksum 28F65A16862B20ACFAE67B99686C1BB561ED88865BE96E8F39973B621A22047D ====
Код: Выделить всё
REM GENRE "Melodic Heavy Metal"
REM DATE 2017
REM DISCID A40B7A0B
REM COMMENT "ExactAudioCopy v1.3"
PERFORMER "Pink Cream 69"
TITLE "Headstrong (Japan)"
FILE "Pink Cream 69 - Headstrong (Japan).flac" WAVE
  TRACK 01 AUDIO
    TITLE "We Bow To None"
    PERFORMER "Pink Cream 69"
    INDEX 01 00:00:00
  TRACK 02 AUDIO
    TITLE "Walls Come Down"
    PERFORMER "Pink Cream 69"
    INDEX 00 03:35:08
    INDEX 01 03:36:70
  TRACK 03 AUDIO
    TITLE "Unite And Divide"
    PERFORMER "Pink Cream 69"
    INDEX 00 08:03:48
    INDEX 01 08:05:35
  TRACK 04 AUDIO
    TITLE "No More Fear"
    PERFORMER "Pink Cream 69"
    INDEX 00 12:45:32
    INDEX 01 12:47:19
  TRACK 05 AUDIO
    TITLE "Man Of Sorrow"
    PERFORMER "Pink Cream 69"
    INDEX 00 16:56:10
    INDEX 01 16:57:72
  TRACK 06 AUDIO
    TITLE "Path Of Destiny"
    PERFORMER "Pink Cream 69"
    INDEX 00 22:11:64
    INDEX 01 22:13:52
  TRACK 07 AUDIO
    TITLE "Vagrant Of The Night"
    PERFORMER "Pink Cream 69"
    INDEX 00 26:56:29
    INDEX 01 26:58:16
  TRACK 08 AUDIO
    TITLE "Bloodsucker"
    PERFORMER "Pink Cream 69"
    INDEX 00 31:35:06
    INDEX 01 31:36:68
  TRACK 09 AUDIO
    TITLE "Whistleblower"
    PERFORMER "Pink Cream 69"
    INDEX 00 35:35:18
    INDEX 01 35:37:05
  TRACK 10 AUDIO
    TITLE "The Other Man"
    PERFORMER "Pink Cream 69"
    INDEX 00 40:11:54
    INDEX 01 40:13:41
  TRACK 11 AUDIO
    TITLE "Vagrant Of The Night (Acoustic Remix) (Bonus Track)"
    PERFORMER "Pink Cream 69"
    INDEX 00 44:54:19
    INDEX 01 44:56:06
Код: Выделить всё
REM GENRE "Melodic Heavy Metal"
REM DATE 2017
REM DISCID 7809C909
REM COMMENT "ExactAudioCopy v1.3"
PERFORMER "Pink Cream 69"
TITLE "Live In Ludwigsburg"
FILE "Pink Cream 69 - Live In Ludwigsburg.flac" WAVE
  TRACK 01 AUDIO
    TITLE "Special"
    PERFORMER "Pink Cream 69"
    INDEX 01 00:00:00
  TRACK 02 AUDIO
    TITLE "Talk To The Moon"
    PERFORMER "Pink Cream 69"
    INDEX 01 04:31:25
  TRACK 03 AUDIO
    TITLE "Break The Silence"
    PERFORMER "Pink Cream 69"
    INDEX 01 09:05:71
  TRACK 04 AUDIO
    TITLE "Do You Like It Like That"
    PERFORMER "Pink Cream 69"
    INDEX 01 13:02:43
  TRACK 05 AUDIO
    TITLE "The Spirit"
    PERFORMER "Pink Cream 69"
    INDEX 01 17:32:28
  TRACK 06 AUDIO
    TITLE "Livin' My Life For You"
    PERFORMER "Pink Cream 69"
    INDEX 01 22:27:41
  TRACK 07 AUDIO
    TITLE "Wasted Years"
    PERFORMER "Pink Cream 69"
    INDEX 01 26:29:68
  TRACK 08 AUDIO
    TITLE "Welcome The Night"
    PERFORMER "Pink Cream 69"
    INDEX 01 30:53:16
  TRACK 09 AUDIO
    TITLE "Shame"
    PERFORMER "Pink Cream 69"
    INDEX 01 35:49:54
PRODUCED BY: Dennis Ward
BAND MEMBERS:
David Readman – vocals
Alfred Koffler – guitars
Uwe Reitenauer – guitars
Dennis Ward – bass
Chris Schmidt – drums
Правила, инструкции, FAQ!!!
Торрент  Добавлен [14 июн 2019, 01:21] Скачать торрент Магнет ссылка
Скачать торрент
16.94 КБ

Статус
Проверен 
 
Размер  741.65 МБ
Приватный: Нет (DHT включён)
.torrent скачан  0
Как залить торрент? | Как скачать Torrent? | Как смотреть и слушать онлайн?  
Гость
 



Вернуться в AOR (Melodic Hard Rock, Arena rock)

Кто сейчас на конференции

Сейчас этот форум просматривают: нет зарегистрированных пользователей и гости: 0