(Heavy Metal) [CD] Apollo Ra - Ra Pariah - 1989 (2015), FLAC (image+.cue), lossless


Статистика раздачи
Размер: 436.48 МБ | Добавлен: 26 май 2019, 13:27 | Скачали: 0
Сидеров: 0  [0 байт/сек]    Личеров: 0  [0 байт/сек]

Сообщение Гость » 26 май 2019, 13:27

Apollo Ra / Ra Pariah
Жанр: Heavy Metal
Носитель: CD
Страна исполнителя: US
Год издания: 1989
Лейбл: No Remorse Records
Номер по каталогу: NRR070
Страна релиза: Greece
Аудиокодек: FLAC
Тип рипа: image+.cue
Битрейт аудио: lossless
Продолжительность: 00:57:51
Наличие сканов в содержимом раздачи: да
Источник: личная коллекция/свой рип
Треклист:
01. Crimson Streets
02. Out of the Night
03. Heaven's Just Another Way
04. Obsession (The Liar's Dream)
05. The Challenge
06. Creating Zero
07. Ra Pariah
08. Bane of the Black Sword
09. Coming of Age/Rukus
10. March of Fire
11. To Be a Hero
12. Winds of Time (Demo '89) (Bonus Track)
13. Alone in the Darkness (Demo '89) (Bonus Track)
Заметка:
Единственный официальный диск с оригинальной мастер-лентой.
Вот старая обложка альбома, потому что она мне больше нравится.
Звукозаписывающая компания группы обанкротилась, и группа так и не стала широко известной своими навыками.
Код: Выделить всё
Exact Audio Copy V1.3 from 2. September 2016
EAC extraction logfile from 19. May 2019, 3:51
Apollo Ra / Ra Pariah
Used drive  : PLEXTOR DVDR   PX-L890SA   Adapter: 1  ID: 0
Read mode               : Secure
Utilize accurate stream : Yes
Defeat audio cache      : Yes
Make use of C2 pointers : No
Read offset correction                      : 6
Overread into Lead-In and Lead-Out          : No
Fill up missing offset samples with silence : Yes
Delete leading and trailing silent blocks   : No
Null samples used in CRC calculations       : Yes
Used interface                              : Native Win32 interface for Win NT & 2000
Used output format              : User Defined Encoder
Selected bitrate                : 896 kBit/s
Quality                         : High
Add ID3 tag                     : No
Command line compressor         : C:\Program Files (x86)\Exact Audio Copy\FLAC\flac.exe
Additional command line options : -6 -V -T "ARTIST=%artist%" -T "TITLE=%title%" -T "ALBUM=%albumtitle%" -T "DATE=%year%" -T "TRACKNUMBER=%tracknr%" -T "GENRE=%genre%" -T "COMMENT=%comment%" -T "BAND=%albuminterpret%" -T "ALBUMARTIST=%albuminterpret%" -T "COMPOSER=%composer%" %haslyrics%--tag-from-file=LYRICS="%lyricsfile%"%haslyrics% -T "DISCNUMBER=%cdnumber%" -T "TOTALDISCS=%totalcds%" -T "TOTALTRACKS=%numtracks%" %hascover%--picture="%coverfile%"%hascover% %source% -o %dest%
TOC of the extracted CD
     Track |   Start  |  Length  | Start sector | End sector
    ---------------------------------------------------------
        1  |  0:00.00 |  4:29.56 |         0    |    20230
        2  |  4:29.56 |  4:19.30 |     20231    |    39685
        3  |  8:49.11 |  3:31.27 |     39686    |    55537
        4  | 12:20.38 |  3:18.23 |     55538    |    70410
        5  | 15:38.61 |  3:04.38 |     70411    |    84248
        6  | 18:43.24 |  3:32.14 |     84249    |   100162
        7  | 22:15.38 |  5:50.31 |    100163    |   126443
        8  | 28:05.69 |  4:35.10 |    126444    |   147078
        9  | 32:41.04 |  2:45.02 |    147079    |   159455
       10  | 35:26.06 |  5:28.50 |    159456    |   184105
       11  | 40:54.56 |  3:54.59 |    184106    |   201714
       12  | 44:49.40 |  8:39.59 |    201715    |   240698
       13  | 53:29.24 |  4:22.39 |    240699    |   260387
Range status and errors
Selected range
     Filename C:\Torrents\Apollo Ra - 1989 - Ra Pariah (No Remorse Records, NRR070, Greece, 2015)\Apollo Ra - Ra Pariah.wav
     Peak level 100.0 %
     Extraction speed 3.2 X
     Range quality 100.0 %
     Test CRC 736D4A58
     Copy CRC 736D4A58
     Copy OK
No errors occurred
AccurateRip summary
Track  1  accurately ripped (confidence 1)  [5242D388]  (AR v2)
Track  2  accurately ripped (confidence 1)  [D6112AD1]  (AR v2)
Track  3  accurately ripped (confidence 1)  [93A074DD]  (AR v2)
Track  4  accurately ripped (confidence 1)  [C255B69D]  (AR v2)
Track  5  accurately ripped (confidence 1)  [5E5D7059]  (AR v2)
Track  6  accurately ripped (confidence 1)  [662000D6]  (AR v2)
Track  7  accurately ripped (confidence 1)  [49C1DE69]  (AR v2)
Track  8  accurately ripped (confidence 1)  [0D1600F2]  (AR v2)
Track  9  accurately ripped (confidence 1)  [997901DA]  (AR v2)
Track 10  accurately ripped (confidence 1)  [527354D3]  (AR v2)
Track 11  accurately ripped (confidence 1)  [CFC8BA97]  (AR v2)
Track 12  accurately ripped (confidence 1)  [60723F71]  (AR v2)
Track 13  accurately ripped (confidence 1)  [0ABCD184]  (AR v2)
All tracks accurately ripped
End of status report
==== Log checksum 0E27C7D0390DB9C744834DF371A828DD81FE59DDB5B1B81636F6F973B72FE0B5 ====
Код: Выделить всё
REM GENRE "Heavy Metal"
REM DATE 1989
REM DISCID A60D8F0D
REM COMMENT "ExactAudioCopy v1.3"
PERFORMER "Apollo Ra"
TITLE "Ra Pariah"
REM COMPOSER ""
FILE "Apollo Ra - Ra Pariah.flac" WAVE
  TRACK 01 AUDIO
    TITLE "Crimson Streets"
    PERFORMER "Apollo Ra"
    REM COMPOSER ""
    INDEX 01 00:00:00
  TRACK 02 AUDIO
    TITLE "Out of the Night"
    PERFORMER "Apollo Ra"
    REM COMPOSER ""
    INDEX 01 04:29:56
  TRACK 03 AUDIO
    TITLE "Heaven's Just Another Way"
    PERFORMER "Apollo Ra"
    REM COMPOSER ""
    INDEX 01 08:49:11
  TRACK 04 AUDIO
    TITLE "Obsession (The Liar's Dream)"
    PERFORMER "Apollo Ra"
    REM COMPOSER ""
    INDEX 01 12:20:38
  TRACK 05 AUDIO
    TITLE "The Challenge"
    PERFORMER "Apollo Ra"
    REM COMPOSER ""
    INDEX 01 15:38:61
  TRACK 06 AUDIO
    TITLE "Creating Zero"
    PERFORMER "Apollo Ra"
    REM COMPOSER ""
    INDEX 01 18:43:24
  TRACK 07 AUDIO
    TITLE "Ra Pariah"
    PERFORMER "Apollo Ra"
    REM COMPOSER ""
    INDEX 01 22:15:38
  TRACK 08 AUDIO
    TITLE "Bane of the Black Sword"
    PERFORMER "Apollo Ra"
    REM COMPOSER ""
    INDEX 01 28:05:69
  TRACK 09 AUDIO
    TITLE "Coming of Age/Rukus"
    PERFORMER "Apollo Ra"
    REM COMPOSER ""
    INDEX 01 32:41:04
  TRACK 10 AUDIO
    TITLE "March of Fire"
    PERFORMER "Apollo Ra"
    REM COMPOSER ""
    INDEX 01 35:26:06
  TRACK 11 AUDIO
    TITLE "To Be a Hero"
    PERFORMER "Apollo Ra"
    REM COMPOSER ""
    INDEX 01 40:54:56
  TRACK 12 AUDIO
    TITLE "Winds of Time (Demo '89) (Bonus Track)"
    PERFORMER "Apollo Ra"
    REM COMPOSER ""
    INDEX 01 44:49:40
  TRACK 13 AUDIO
    TITLE "Alone in the Darkness (Demo '89) (Bonus Track)"
    PERFORMER "Apollo Ra"
    REM COMPOSER ""
    INDEX 01 53:29:24
Код: Выделить всё
[img]https://i.ibb.co/q5PxkLN/Tau-Analyzer.jpg[/img]
Правила, инструкции, FAQ!!!
Торрент  Добавлен [26 май 2019, 13:27] Скачать торрент Магнет ссылка
Скачать торрент
18.29 КБ

Статус
Проверен 
 
Размер  436.48 МБ
Приватный: Нет (DHT включён)
.torrent скачан  0
Как залить торрент? | Как скачать Torrent? | Как смотреть и слушать онлайн?  
Гость
 



Вернуться в Heavy, Power, Progressive (Metal)

Кто сейчас на конференции

Сейчас этот форум просматривают: нет зарегистрированных пользователей и гости: 0