(Heavy Metal) [CD] Astral Doors - Worship or Die - 2019, FLAC (tracks+.cue), lossless


Статистика раздачи
Размер: 425.39 МБ | Добавлен: 18 май 2019, 14:05 | Скачали: 0
Сидеров: 18  [0 байт/сек]    Личеров: 5  [0 байт/сек]

Сообщение Гость » 18 май 2019, 14:05

Astral Doors / Worship or Die
Жанр: Heavy Metal
Носитель: CD
Страна-производитель диска (релиза): Пиратка
Год издания: 2019
Издатель (лейбл): Heavy, Power Metal
Номер по каталогу: MVO210
Страна исполнителя (группы): Sweden
Аудиокодек: FLAC (*.flac)
Тип рипа: tracks+.cue
Продолжительность: 00:55:07
Источник: собственный рип
Наличие сканов в содержимом раздачи: да
Треклист:
01. Night of the Hunter 4:42
02. This Must Be Paradise 4:04
03. Worship or Die 3:16
04. Concrete Heart 3:57
05. Marathon 6:39
06. Desperado 4:45
07. Ride the Clouds 4:00
08. Light at the End of the Tunnel 5:53
09. St. Petersburg 4:56
10. Triumph and Superiority 4:10
11. Let the Fire Burn 3:47
12. Forgive Me Father 4:58
Код: Выделить всё
Exact Audio Copy V1.3 from 2. September 2016
EAC extraction logfile from 17. May 2019, 18:42
Astral Doors / Worship Or Die
Used drive  : ASUS    DRW-24D5MT   Adapter: 1  ID: 0
Read mode               : Secure
Utilize accurate stream : Yes
Defeat audio cache      : Yes
Make use of C2 pointers : No
Read offset correction                      : 6
Overread into Lead-In and Lead-Out          : No
Fill up missing offset samples with silence : Yes
Delete leading and trailing silent blocks   : No
Null samples used in CRC calculations       : Yes
Used interface                              : Native Win32 interface for Win NT & 2000
Gap handling                                : Appended to previous track
Used output format              : User Defined Encoder
Selected bitrate                : 128 kBit/s
Quality                         : High
Add ID3 tag                     : No
Command line compressor         : C:\Program Files (x86)\Exact Audio Copy\Flac\flac.exe
Additional command line options : -V -8 -T "Genre=%genre%" -T "Artist=%artist%" -T "Title=%title%" -T "Album=%albumtitle%" -T "Date=%year%" -T "Tracknumber=%tracknr%" -T "Comment=%comment%" %source%
TOC of the extracted CD
     Track |   Start  |  Length  | Start sector | End sector
    ---------------------------------------------------------
        1  |  0:00.00 |  4:42.35 |         0    |    21184
        2  |  4:42.35 |  4:03.42 |     21185    |    39451
        3  |  8:46.02 |  3:15.66 |     39452    |    54142
        4  | 12:01.68 |  3:57.09 |     54143    |    71926
        5  | 15:59.02 |  6:39.05 |     71927    |   101856
        6  | 22:38.07 |  4:44.39 |    101857    |   123195
        7  | 27:22.46 |  3:59.41 |    123196    |   141161
        8  | 31:22.12 |  5:52.68 |    141162    |   167629
        9  | 37:15.05 |  4:56.02 |    167630    |   189831
       10  | 42:11.07 |  4:10.24 |    189832    |   208605
       11  | 46:21.31 |  3:47.09 |    208606    |   225639
       12  | 50:08.40 |  4:58.22 |    225640    |   248011
Track  1
     Filename C:\Users\Alex\Desktop\Рипы\Новая папка (2)\01. Night Of The Hunter.wav
     Pre-gap length  0:00:02.00
     Peak level 89.1 %
     Extraction speed 5.0 X
     Track quality 100.0 %
     Test CRC D043A239
     Copy CRC D043A239
     Track not present in AccurateRip database
     Copy OK
Track  2
     Filename C:\Users\Alex\Desktop\Рипы\Новая папка (2)\02. This Must Be Paradise.wav
     Peak level 89.1 %
     Extraction speed 5.4 X
     Track quality 100.0 %
     Test CRC 8DCC281E
     Copy CRC 8DCC281E
     Track not present in AccurateRip database
     Copy OK
Track  3
     Filename C:\Users\Alex\Desktop\Рипы\Новая папка (2)\03. Worship Or Die.wav
     Peak level 89.1 %
     Extraction speed 4.8 X
     Track quality 99.9 %
     Test CRC F2F981C9
     Copy CRC F2F981C9
     Track not present in AccurateRip database
     Copy OK
Track  4
     Filename C:\Users\Alex\Desktop\Рипы\Новая папка (2)\04. Concrete Heart.wav
     Peak level 89.1 %
     Extraction speed 6.1 X
     Track quality 100.0 %
     Test CRC EA51EB63
     Copy CRC EA51EB63
     Track not present in AccurateRip database
     Copy OK
Track  5
     Filename C:\Users\Alex\Desktop\Рипы\Новая папка (2)\05. Marathon.wav
     Peak level 89.1 %
     Extraction speed 6.4 X
     Track quality 99.9 %
     Test CRC 13D620F8
     Copy CRC 13D620F8
     Track not present in AccurateRip database
     Copy OK
Track  6
     Filename C:\Users\Alex\Desktop\Рипы\Новая папка (2)\06. Desperado.wav
     Peak level 89.1 %
     Extraction speed 6.5 X
     Track quality 99.9 %
     Test CRC 2DEB818F
     Copy CRC 2DEB818F
     Track not present in AccurateRip database
     Copy OK
Track  7
     Filename C:\Users\Alex\Desktop\Рипы\Новая папка (2)\07. Ride The Clouds.wav
     Peak level 89.1 %
     Extraction speed 7.3 X
     Track quality 100.0 %
     Test CRC CEA7478B
     Copy CRC CEA7478B
     Track not present in AccurateRip database
     Copy OK
Track  8
     Filename C:\Users\Alex\Desktop\Рипы\Новая папка (2)\08. Light At The End Of The Tunnel.wav
     Peak level 89.1 %
     Extraction speed 7.3 X
     Track quality 99.9 %
     Test CRC 81D32D24
     Copy CRC 81D32D24
     Track not present in AccurateRip database
     Copy OK
Track  9
     Filename C:\Users\Alex\Desktop\Рипы\Новая папка (2)\09. St. Petersburg.wav
     Peak level 89.1 %
     Extraction speed 8.2 X
     Track quality 100.0 %
     Test CRC 562CAF8C
     Copy CRC 562CAF8C
     Track not present in AccurateRip database
     Copy OK
Track 10
     Filename C:\Users\Alex\Desktop\Рипы\Новая папка (2)\10. Triumph And Superiority.wav
     Peak level 89.1 %
     Extraction speed 7.4 X
     Track quality 99.9 %
     Test CRC 7F2BAF25
     Copy CRC 7F2BAF25
     Track not present in AccurateRip database
     Copy OK
Track 11
     Filename C:\Users\Alex\Desktop\Рипы\Новая папка (2)\11. Let The Fire Burn.wav
     Peak level 89.1 %
     Extraction speed 8.5 X
     Track quality 100.0 %
     Test CRC E998D86B
     Copy CRC E998D86B
     Track not present in AccurateRip database
     Copy OK
Track 12
     Filename C:\Users\Alex\Desktop\Рипы\Новая папка (2)\12. Forgive Me Father.wav
     Peak level 89.1 %
     Extraction speed 9.0 X
     Track quality 100.0 %
     Test CRC 91B74A55
     Copy CRC 91B74A55
     Track not present in AccurateRip database
     Copy OK
None of the tracks are present in the AccurateRip database
No errors occurred
End of status report
==== Log checksum 6E39FE91114F6E4735B398B7D4FB5B59AEF671C2A98EB93D551CA8DAD83C1CA5 ====
Код: Выделить всё
REM GENRE "Heavy Metal"
REM DATE 2019
REM DISCID 9C0CEA0C
REM COMMENT "ExactAudioCopy v1.3"
PERFORMER "Astral Doors"
TITLE "Worship Or Die"
REM COMPOSER ""
FILE "01. Night Of The Hunter.wav" WAVE
  TRACK 01 AUDIO
    TITLE "Night Of The Hunter"
    PERFORMER "Astral Doors"
    REM COMPOSER ""
    INDEX 01 00:00:00
FILE "02. This Must Be Paradise.wav" WAVE
  TRACK 02 AUDIO
    TITLE "This Must Be Paradise"
    PERFORMER "Astral Doors"
    REM COMPOSER ""
    INDEX 01 00:00:00
FILE "03. Worship Or Die.wav" WAVE
  TRACK 03 AUDIO
    TITLE "Worship Or Die"
    PERFORMER "Astral Doors"
    REM COMPOSER ""
    INDEX 01 00:00:00
FILE "04. Concrete Heart.wav" WAVE
  TRACK 04 AUDIO
    TITLE "Concrete Heart"
    PERFORMER "Astral Doors"
    REM COMPOSER ""
    INDEX 01 00:00:00
FILE "05. Marathon.wav" WAVE
  TRACK 05 AUDIO
    TITLE "Marathon"
    PERFORMER "Astral Doors"
    REM COMPOSER ""
    INDEX 01 00:00:00
FILE "06. Desperado.wav" WAVE
  TRACK 06 AUDIO
    TITLE "Desperado"
    PERFORMER "Astral Doors"
    REM COMPOSER ""
    INDEX 01 00:00:00
FILE "07. Ride The Clouds.wav" WAVE
  TRACK 07 AUDIO
    TITLE "Ride The Clouds"
    PERFORMER "Astral Doors"
    REM COMPOSER ""
    INDEX 01 00:00:00
FILE "08. Light At The End Of The Tunnel.wav" WAVE
  TRACK 08 AUDIO
    TITLE "Light At The End Of The Tunnel"
    PERFORMER "Astral Doors"
    REM COMPOSER ""
    INDEX 01 00:00:00
FILE "09. St. Petersburg.wav" WAVE
  TRACK 09 AUDIO
    TITLE "St. Petersburg"
    PERFORMER "Astral Doors"
    REM COMPOSER ""
    INDEX 01 00:00:00
FILE "10. Triumph And Superiority.wav" WAVE
  TRACK 10 AUDIO
    TITLE "Triumph And Superiority"
    PERFORMER "Astral Doors"
    REM COMPOSER ""
    INDEX 01 00:00:00
FILE "11. Let The Fire Burn.wav" WAVE
  TRACK 11 AUDIO
    TITLE "Let The Fire Burn"
    PERFORMER "Astral Doors"
    REM COMPOSER ""
    INDEX 01 00:00:00
FILE "12. Forgive Me Father.wav" WAVE
  TRACK 12 AUDIO
    TITLE "Forgive Me Father"
    PERFORMER "Astral Doors"
    REM COMPOSER ""
    INDEX 01 00:00:00
Доп. информация:
https://youtu.be/sPQrM0ag96k
Johan Lindstedt - Drums
Joachim Nordlund - Guitars (Sky of Rage)
Jocke Roberg - Keyboards
Nils Patrik Johansson - Vocals (Lion's Share, Nils Patrik Johansson, Wuthering Heights, ex-Civil War, ex-Richard Andersson's Space Odyssey)
Ulf Lagerström - Bass
Mats Gesar - Guitars
Правила, инструкции, FAQ!!!
Торрент  Добавлен [18 май 2019, 14:05] Скачать торрент Магнет ссылка
Скачать торрент
18.39 КБ

Статус
Проверен 
 
Размер  425.39 МБ
Приватный: Нет (DHT включён)
.torrent скачан  0
Как залить торрент? | Как скачать Torrent? | Как смотреть и слушать онлайн?  
Гость
 



Вернуться в Heavy, Power, Progressive (Metal)

Кто сейчас на конференции

Сейчас этот форум просматривают: нет зарегистрированных пользователей и гости: 0