(Heavy Metal) [CD] Black Label Society - Sonic Brew (20th Anniversary Blend 5.99 - 5.19) - 1999/2019, FLAC (tracks), lossless


Статистика раздачи
Размер: 482.01 МБ | Добавлен: 26 май 2019, 13:28 | Скачали: 0
Сидеров: 0  [0 байт/сек]    Личеров: 0  [0 байт/сек]

Сообщение Гость » 26 май 2019, 13:28

Black Label Society - Sonic Brew (20th Anniversary Blend 5.99 - 5.19)
Жанр: Heavy Metal
Носитель: CD
Год издания: 2019
Страна исполнителя: USA
Аудиокодек: FLAC (*.flac)
Тип рипа: tracks
Битрейт аудио: lossless
Продолжительность: 01:09:56
Релизёр: FORSAKEN
Наличие сканов: net
Треклист:
01. Bored To Tears (4:29)
02. The Rose Petalled Garden (4:55)
03. Hey You (Batch Of Lies) (3:53)
04. Born To Lose (4:23)
05. Peddlers Of Death (4:34)
06. Mother Mary (4:27)
07. Beneath The Tree (4:09)
08. Low Down (5:05)
09. T.A.Z. (1:56)
10. Lost My Better Half (4:24)
11. Black Pearl (3:28)
12. World Of Trouble (5:20)
13. Spoke In The Wheel (4:14)
14. The Beginning...At Last (4:27)
15. Black Pearl (Bonus Track) (4:26)
16. Spoke In The Wheel (Bonus Track) (5:46)
Код: Выделить всё
CUE Corrector v. 8.3.5 / b. 913 (Apr. 22, 2019)
————————————————————————————————————————————————————————————————————————
Black Label Society / Sonic Brew 20th Anniversary Blend 5.99-5.19
Folder: Black Label Society - 1999 - Sonic Brew (20th Anniversary Blend 5.99-5.19) [CD-FLAC]
Audio files:
    01 Bored To Tears.flac [04:29.400; FLAC • 994 kbps • 16 bit \ 44100 Hz • stereo; 31.93 MB (33 482 444 B)]
    02 The Rose Petalled Garden.flac [04:55.347; FLAC • 948 kbps • 16 bit \ 44100 Hz • stereo; 33.40 MB (35 024 418 B)]
    03 Hey You (Batch Of Lies).flac [03:53.200; FLAC • 932 kbps • 16 bit \ 44100 Hz • stereo; 25.92 MB (27 177 166 B)]
    04 Born To Lose.flac [04:23.293; FLAC • 999 kbps • 16 bit \ 44100 Hz • stereo; 31.36 MB (32 883 836 B)]
    05 Peddlers Of Death.flac [04:33.533; FLAC • 884 kbps • 16 bit \ 44100 Hz • stereo; 28.83 MB (30 226 145 B)]
    06 Mother Mary.flac [04:26.987; FLAC • 976 kbps • 16 bit \ 44100 Hz • stereo; 31.07 MB (32 576 065 B)]
    07 Beneath The Tree.flac [04:09.333; FLAC • 926 kbps • 16 bit \ 44100 Hz • stereo; 27.54 MB (28 877 468 B)]
    08 Low Down.flac [05:04.640; FLAC • 1026 kbps • 16 bit \ 44100 Hz • stereo; 37.28 MB (39 092 866 B)]
    09 T.A.Z..flac [01:56.373; FLAC • 763 kbps • 16 bit \ 44100 Hz • stereo; 10.60 MB (11 111 956 B)]
    10 Lost My Better Half.flac [04:24.240; FLAC • 1005 kbps • 16 bit \ 44100 Hz • stereo; 31.67 MB (33 204 212 B)]
    11 Black Pearl.flac [03:27.667; FLAC • 942 kbps • 16 bit \ 44100 Hz • stereo; 23.34 MB (24 475 773 B)]
    12 World Of Trouble.flac [05:20.280; FLAC • 1047 kbps • 16 bit \ 44100 Hz • stereo; 40.00 MB (41 943 589 B)]
    13 Spoke In The Wheel.flac [04:13.707; FLAC • 910 kbps • 16 bit \ 44100 Hz • stereo; 27.53 MB (28 865 404 B)]
    14 The Beginning...At Last.flac [04:26.560; FLAC • 1071 kbps • 16 bit \ 44100 Hz • stereo; 34.05 MB (35 703 907 B)]
    15 Black Pearl (Bonus Track).flac [04:25.973; FLAC • 877 kbps • 16 bit \ 44100 Hz • stereo; 27.83 MB (29 177 975 B)]
    16 Spoke In The Wheel (Bonus Track).flac [05:45.587; FLAC • 866 kbps • 16 bit \ 44100 Hz • stereo; 35.68 MB (37 413 315 B)]
Accuracy: -m0
File 01 Bored To Tears                   - 100% CDDA [04:29:30]
File 02 The Rose Petalled Garden         - 100% CDDA [04:55:26]
File 03 Hey You (Batch Of Lies)          - 100% CDDA [03:53:15]
File 04 Born To Lose                     - 100% CDDA [04:23:22]
File 05 Peddlers Of Death                - 100% CDDA [04:33:40]
File 06 Mother Mary                      - 100% CDDA [04:26:74]
File 07 Beneath The Tree                 - 100% CDDA [04:09:25]
File 08 Low Down                         -  99% CDDA [05:04:48]
File 09 T.A.Z.                           - 100% CDDA [01:56:28]
File 10 Lost My Better Half              - 100% CDDA [04:24:18]
File 11 Black Pearl                      - 100% CDDA [03:27:50]
File 12 World Of Trouble                 - 100% CDDA [05:20:21]
File 13 Spoke In The Wheel               - 100% CDDA [04:13:53]
File 14 The Beginning...At Last          -  99% CDDA [04:26:42]
File 15 Black Pearl (Bonus Track)        - 100% CDDA [04:25:73]
File 16 Spoke In The Wheel (Bonus Track) -  99% CDDA [05:45:44]
————— Summary: —————
These tracks looks like CDDA with probability 100%.
————————————————————————————————————————————————————————————————————————
ANALYZER:
    auCDtect: CD records authenticity detector, version 0.8.2
    Copyright (c) 2004 Oleg Berngardt. All rights reserved.
    Copyright (c) 2004 Alexander Djourik. All rights reserved.
Time elapsed: 2 m 59 s
Log created at May 22, 2019 08:22:52
=== 20891FF7BE61D0211E1D7A6D0C875944184AAED68D7CB09FEBDA1D69D591D26E ===
Код: Выделить всё
[url=https://fastpic.ru/view/109/2019/0522/_052a56d9122b3b3f2495825f1089b76a.jpg.html][img]https://i109.fastpic.ru/thumb/2019/0522/6a/_052a56d9122b3b3f2495825f1089b76a.jpeg[/img][/url]
[CUETools log; Date: 22.05.2019 8:18:45; Version: 2.1.6]
[CTDB TOCID: Q.9cxWi8hTQLgZ4q0jjaRvw9KmI-] found.
Track | CTDB Status
  1   | (8/8) Accurately ripped
  2   | (8/8) Accurately ripped
  3   | (8/8) Accurately ripped
  4   | (8/8) Accurately ripped
  5   | (8/8) Accurately ripped
  6   | (8/8) Accurately ripped
  7   | (8/8) Accurately ripped
  8   | (8/8) Accurately ripped
  9   | (8/8) Accurately ripped
 10   | (8/8) Accurately ripped
 11   | (8/8) Accurately ripped
 12   | (8/8) Accurately ripped
 13   | (8/8) Accurately ripped
 14   | (8/8) Accurately ripped
 15   | (8/8) Accurately ripped
 16   | (8/8) Accurately ripped
[AccurateRip ID: 00284948-01e176ef-ea106410] disk not present in database.
Track Peak [ CRC32  ] [W/O NULL]
 --  100,0 [E372E7E4] [50BC373E]
 01   99,1 [071807E0] [9FBBC892]
 02   98,9 [8D496F93] [4B0BCE78]
 03   99,0 [92E09E38] [080A2DB1]
 04   93,3 [3E356A73] [8881816A]
 05   98,9 [140EBD03] [57FDD8C6]
 06   99,1 [745DCA24] [E179AA55]
 07   98,8 [98B4BAE0] [073179C4]
 08   63,5 [D806F442] [F7EFF656]
 09   81,1 [A3D67554] [4B542D68]
 10   75,5 [22B3FC81] [F564DE5F]
 11   98,8 [8875F583] [D262AC7F]
 12   99,0 [C1F21317] [079489B5]
 13   93,2 [71E2F8FB] [4A22DF80]
 14   98,9 [7D741E65] [F9189234]
 15   94,4 [6734DC0F] [BF4A3263]
 16  100,0 [4631BF5D] [CAD14BFC]
Код: Выделить всё
foobar2000 1.4.3 / Замер динамического диапазона (DR) 1.1.1
Дата отчёта:  2019-05-22 08:17:38
--------------------------------------------------------------------------------
Анализ:   Black Label Society / Sonic Brew 20th Anniversary Blend 5.99-5.19
--------------------------------------------------------------------------------
DR         Пики         RMS           Продолжительность трека
--------------------------------------------------------------------------------
DR7       -0.08 дБ    -8.48 дБ      4:29 01-Bored To Tears
DR7       -0.09 дБ    -8.64 дБ      4:55 02-The Rose Petalled Garden
DR7       -0.09 дБ    -9.16 дБ      3:53 03-Hey You (Batch Of Lies)
DR7       -0.59 дБ    -9.22 дБ      4:23 04-Born To Lose
DR7       -0.10 дБ    -9.70 дБ      4:34 05-Peddlers Of Death
DR7       -0.07 дБ    -8.10 дБ      4:27 06-Mother Mary
DR7       -0.10 дБ    -8.88 дБ      4:09 07-Beneath The Tree
DR4       -3.94 дБ    -9.07 дБ      5:05 08-Low Down
DR10      -1.81 дБ   -13.06 дБ      1:56 09-T.A.Z.
DR5       -2.44 дБ    -7.86 дБ      4:24 10-Lost My Better Half
DR7       -0.10 дБ   -10.34 дБ      3:28 11-Black Pearl
DR6       -0.09 дБ    -7.42 дБ      5:20 12-World Of Trouble
DR7       -0.61 дБ    -9.65 дБ      4:14 13-Spoke In The Wheel
DR6       -0.09 дБ    -7.60 дБ      4:27 14-The Beginning...At Last
DR7       -0.50 дБ    -9.62 дБ      4:26 15-Black Pearl (Bonus Track)
DR7        0.00 дБ    -8.34 дБ      5:46 16-Spoke In The Wheel (Bonus Track)
--------------------------------------------------------------------------------
Количество треков: 16
Реальные значения DR: DR7
Частота:   44100 Гц
Каналов:   2
Разрядность:   16
Битрейт:   866 кбит/с
Кодек:   FLAC
================================================================================
Правила, инструкции, FAQ!!!
Торрент  Добавлен [26 май 2019, 13:28] Скачать торрент Магнет ссылка
Скачать торрент
20.29 КБ

Статус
Проверен 
 
Размер  482.01 МБ
Приватный: Нет (DHT включён)
.torrent скачан  0
Как залить торрент? | Как скачать Torrent? | Как смотреть и слушать онлайн?  
Гость
 



Вернуться в Heavy, Power, Progressive (Metal)

Кто сейчас на конференции

Сейчас этот форум просматривают: нет зарегистрированных пользователей и гости: 0