(Heavy | Power Metal) [CD] Ross the Boss - By Blood Sworn - 2018, FLAC (image+.cue), lossless


Статистика раздачи
Размер: 543.19 МБ | Добавлен: 26 май 2019, 13:28 | Скачали: 1
Сидеров: 12  [0 байт/сек]    Личеров: 3  [0 байт/сек]

Сообщение Гость » 26 май 2019, 13:28


Ross the Boss


By Blood Sworn




• Жанр: Heavy | Power Metal
• Носитель: CD
• Год издания: 2018
• Страна: USA
• Аудиокодек: FLAC (*.flac)
• Тип рипа: image+.cue
• Продолжительность: 01:02:00
• Источник: Ilijan
• Наличие сканов: да

01. By Blood Sworn {00:04:49}
02. Among the Bones {00:04:51}
03. This Is Vengeance {00:04:27}
04. We Are the Night {00:04:03}
05. Faith of the Fallen {00:05:27}
06. Devil's Day {00:03:05}
07. Lilith {00:07:23}
08. Play Among the Godz {00:03:38}
09. Circle of Damnation {00:04:27}
10. Fistful of Hate {00:04:19}
11. Each Dawn I Die (Bonus Track) {00:04:12}
12. The Oath (Bonus Track) {00:04:34}
13. Hail and Kill (Bonus Track) {00:06:39}
Код: Выделить всё
REM GENRE "Heavy/Power Metal"
REM DATE 2018
REM DISCID AE0E880D
REM COMMENT "ExactAudioCopy v1.3"
PERFORMER "Ross the Boss"
TITLE "By Blood Sworn"
FILE "Ross the Boss - By Blood Sworn.flac" WAVE
  TRACK 01 AUDIO
    TITLE "By Blood Sworn"
    PERFORMER "Ross the Boss"
    INDEX 01 00:00:00
  TRACK 02 AUDIO
    TITLE "Among the Bones"
    PERFORMER "Ross the Boss"
    INDEX 01 04:49:13
  TRACK 03 AUDIO
    TITLE "This Is Vengeance"
    PERFORMER "Ross the Boss"
    INDEX 01 09:40:41
  TRACK 04 AUDIO
    TITLE "We Are the Night"
    PERFORMER "Ross the Boss"
    INDEX 01 14:07:61
  TRACK 05 AUDIO
    TITLE "Faith of the Fallen"
    PERFORMER "Ross the Boss"
    INDEX 01 18:11:24
  TRACK 06 AUDIO
    TITLE "Devil's Day"
    PERFORMER "Ross the Boss"
    INDEX 01 23:39:14
  TRACK 07 AUDIO
    TITLE "Lilith"
    PERFORMER "Ross the Boss"
    INDEX 01 26:45:06
  TRACK 08 AUDIO
    TITLE "Play Among the Godz"
    PERFORMER "Ross the Boss"
    INDEX 01 34:08:32
  TRACK 09 AUDIO
    TITLE "Circle of Damnation"
    PERFORMER "Ross the Boss"
    INDEX 01 37:46:64
  TRACK 10 AUDIO
    TITLE "Fistful of Hate"
    PERFORMER "Ross the Boss"
    INDEX 01 42:14:17
  TRACK 11 AUDIO
    TITLE "Each Dawn I Die (Bonus Track)"
    PERFORMER "Ross the Boss"
    INDEX 01 46:33:41
  TRACK 12 AUDIO
    TITLE "The Oath (Bonus Track)"
    PERFORMER "Ross the Boss"
    INDEX 01 50:46:05
  TRACK 13 AUDIO
    TITLE "Hail and Kill (Bonus Track)"
    PERFORMER "Ross the Boss"
    INDEX 01 55:20:18

Код: Выделить всё
Exact Audio Copy V1.3 from 2. September 2016
EAC extraction logfile from 2. May 2018, 19:35
Ross the Boss / By Blood Sworn
Used drive  : ATAPI   iHAS122   W   Adapter: 2  ID: 0
Read mode               : Secure
Utilize accurate stream : Yes
Defeat audio cache      : Yes
Make use of C2 pointers : No
Read offset correction                      : 48
Overread into Lead-In and Lead-Out          : No
Fill up missing offset samples with silence : Yes
Delete leading and trailing silent blocks   : No
Null samples used in CRC calculations       : Yes
Used interface                              : Installed external ASPI interface
Used output format              : User Defined Encoder
Selected bitrate                : 1024 kBit/s
Quality                         : High
Add ID3 tag                     : No
Command line compressor         : C:\Program Files\FLAC\flac.exe
Additional command line options : -V -8 -T "Date=%year%" -T "Genre=%genre%" -T"COMMENT=Ripped by  Ilijan [MeTaLMaDNeSS.TeaM]" -8 -V %source%
TOC of the extracted CD
     Track |   Start  |  Length  | Start sector | End sector
    ---------------------------------------------------------
        1  |  0:00.00 |  4:49.13 |         0    |    21687
        2  |  4:49.13 |  4:51.28 |     21688    |    43540
        3  |  9:40.41 |  4:27.20 |     43541    |    63585
        4  | 14:07.61 |  4:03.38 |     63586    |    81848
        5  | 18:11.24 |  5:27.65 |     81849    |   106438
        6  | 23:39.14 |  3:05.67 |    106439    |   120380
        7  | 26:45.06 |  7:23.26 |    120381    |   153631
        8  | 34:08.32 |  3:38.32 |    153632    |   170013
        9  | 37:46.64 |  4:27.28 |    170014    |   190066
       10  | 42:14.17 |  4:19.24 |    190067    |   209515
       11  | 46:33.41 |  4:12.39 |    209516    |   228454
       12  | 50:46.05 |  4:34.13 |    228455    |   249017
       13  | 55:20.18 |  6:39.63 |    249018    |   279005
Range status and errors
Selected range
     Filename D:\Delirium\Ross the Boss - By Blood Sworn.wav
     Peak level 100.0 %
     Extraction speed 3.9 X
     Range quality 99.9 %
     Test CRC B1EB8EE6
     Copy CRC B1EB8EE6
     Copy OK
No errors occurred
AccurateRip summary
Track  1  not present in database
Track  2  not present in database
Track  3  not present in database
Track  4  not present in database
Track  5  not present in database
Track  6  not present in database
Track  7  not present in database
Track  8  not present in database
Track  9  not present in database
Track 10  not present in database
Track 11  not present in database
Track 12  not present in database
Track 13  not present in database
None of the tracks are present in the AccurateRip database
End of status report
---- CUETools DB Plugin V2.1.6
[CTDB TOCID: bJaSJgHBXJlB_I4gRjaXwPyN8Ko-] found
Submit result: bJaSJgHBXJlB_I4gRjaXwPyN8Ko- has been confirmed
Track | CTDB Status
  1   | (1/1) Accurately ripped
  2   | (1/1) Accurately ripped
  3   | (1/1) Accurately ripped
  4   | (1/1) Accurately ripped
  5   | (1/1) Accurately ripped
  6   | (1/1) Accurately ripped
  7   | (1/1) Accurately ripped
  8   | (1/1) Accurately ripped
  9   | (1/1) Accurately ripped
 10   | (1/1) Accurately ripped
 11   | (1/1) Accurately ripped
 12   | (1/1) Accurately ripped
 13   | (1/1) Accurately ripped
==== Log checksum 57EE3A40DD90417A48DC239BD099A1EAC60E34C510D4590DE2ECCC669B446102 ====




Правила, инструкции, FAQ!!!
Торрент  Добавлен [26 май 2019, 13:28] Скачать торрент Магнет ссылка
Скачать торрент
12.21 КБ

Статус
Проверен 
 
Размер  543.19 МБ
Приватный: Нет (DHT включён)
.torrent скачан  1
Как залить торрент? | Как скачать Torrent? | Как смотреть и слушать онлайн?  
Гость
 



Вернуться в Heavy, Power, Progressive (Metal)

Кто сейчас на конференции

Сейчас этот форум просматривают: нет зарегистрированных пользователей и гости: 0