Huayuworld - Speak Mandarin in 1000 words / Говорите на китайском 1000 словами [2010, ISO, PDF, ENG]


Статистика раздачи
Размер: 3.71 ГБ | Добавлен: 03 мар 2017, 20:11 | Скачали: 0
Сидеров: 9  [0 байт/сек]    Личеров: 4  [0 байт/сек]

Сообщение Гость » 03 мар 2017, 20:11

Speak Mandarin in 1000 words

Внимание! Торрент перезалит 8.10.2012. Причина - добавление бумажного пособия для данного курса (в четырех вариантах - на английском, немецком, французском и испанском языках).

Год выпуска: 2010 г.
Категория: Интерактивное пособие
Разработчик: Huayuworld
Издатель: Huayuworld
Язык курса: Английский
Формат: PDF
Количество страниц:
ISBN: -
Аудио кодек: MP3
Битрейт аудио: 160 kbps
Качество видео: 320х240
Формат видео: MP4
Совместимость с Vista: неизвестно
Таблэтка: не требуется
Описание: интерактивный курс китайского языка основанный на 1000 самых распространенных словах этого языка. Состоит из 80 уроков.
Описание на английском: This book is divided into 100 lessons, and every lesson has three units: ”Dialogue”, “Vocabulary”, and “Grammar and Sentence Patterns”. The content from “Dialogue” is distilled from daily lives, and is practicability-oriented. The materials range from self-introduction, communication, travel, and Chinese festivals. Important and frequently used words and phrases are fully elaborated in “Vocabulary”. Students not only can understand the stroke order of the listed words, but also the phrases derived from those words. In “Grammar and Sentence Patterns”, we hope the students can agilely apply the glossary they have learned and use Chinese fluently and naturally in daily lives. To maximize the effect of this book, many efforts have been put into this publication. Un texto intermedio adicional para despistar al enemigo. We hope for teachers choosing this book can arrange a natural and lively learning environment for the students to learn Chinese in a pleasant atmosphere. In the end, students can lay solid foundation for Chinese learning in preparation for further studies of Chinese language. OCAC would also like to take this opportunity to invite comments and suggestions for this book, and make this book into perfection.
Общее
Полное имя : \speakmandarin1000\movie\u072p6.flv
Формат : Flash Video
Размер файла : 5,59 Мбайт
Продолжительность : 1 м. 48 с.
Общий поток : 432 Кбит/сек

Видео
Формат : VP6
Идентификатор кодека : 4
Продолжительность : 1 м. 48 с.
Битрейт : 300 Кбит/сек
Ширина : 320 пикселей
Высота : 240 пикселей
Соотношение сторон : 4:3
Режим частоты кадров : Постоянный
Частота кадров : 29,970 кадров/сек
Битовая глубина : 8 бит
Бит/(Пиксели*Кадры) : 0.130
Размер потока : 3,88 Мбайт (69%)

Аудио
Формат : MPEG Audio
Версия формата : Version 1
Профиль формата : Layer 3
Режим : Joint stereo
Расширение режима : Intensity Stereo + MS Stereo
Идентификатор кодека : 2
Идентификатор кодека/Подсказка : MP3
Продолжительность : 1 м. 48 с.
Вид битрейта : Постоянный
Битрейт : 96,0 Кбит/сек
Каналы : 2 канала
Частота : 44,1 КГц
Метод сжатия : С потерями
Размер потока : 1,24 Мбайт (22%)


Релиз группы:
отредактировано 2012.07.01
Правила, инструкции, FAQ!!!
Торрент  Добавлен [03 мар 2017, 20:11] Скачать торрент Магнет ссылка
Скачать торрент
19.32 КБ

Статус
Проверен 
 
Размер  3.71 ГБ
Приватный: Нет (DHT включён)
.torrent скачан  0
Как залить торрент? | Как скачать Torrent? | Как смотреть и слушать онлайн?  
Гость
 


Вернуться в Китайский язык

Кто сейчас на конференции

Сейчас этот форум просматривают: нет зарегистрированных пользователей и гости: 0