(Jazz Rock) [CD] Chicago - Chicago Christmas - 2019, FLAC (image+.cue), lossless


Статистика раздачи
Размер: 319.3 МБ | Добавлен: 09 ноя 2019, 12:38 | Скачали: 1
Сидеров: 98  [0 байт/сек]    Личеров: 32  [0 байт/сек]

Сообщение Гость » 09 ноя 2019, 12:38

Chicago - Chicago Christmas

Жанр: Jazz Rock
Носитель: CD
Страна-производитель диска (релиза): Россия, unofficial
Год издания: 2019
Издатель (лейбл): Chicago Records
Номер по каталогу: R2 604498
Страна исполнителя (группы): USA
Аудиокодек: FLAC (*.flac)
Тип рипа: image+.cue
Продолжительность: 43:44
Источник: собственный рип
Наличие сканов в содержимом раздачи: да
Треклист:
01. (Because) It’s Christmastime 3:20
02. All Over The World 4:19
03. Bring My Baby Back 4:03
04. Merry Christmas, I Love You (R&B Version) 4:13
05. What The World Needs Now Is Love 3:31
06. All Is Right 4:03
07. Sleigh Ride 2019 3:16
08. I’d Do It All Again (Christmas Moon) 4:58
09. I’m Your Santa Claus 4:48
10. Here We Come A Caroling 3:06
11. Merry Christmas, I Love You (Ballad Version) 4:07
Код: Выделить всё
Exact Audio Copy V1.3 from 2. September 2016
Отчёт EAC об извлечении, выполненном 2. ноября 2019, 14:41
Chicago / Christmas
Дисковод: ASUS    DRW-24B3ST   Adapter: 1  ID: 0
Режим чтения                 : Достоверность
Использование точного потока : Да
Отключение кэша аудио        : Да
Использование указателей C2  : Нет
Коррекция смещения при чтении                     : 6
Способность читать области Lead-in и Lead-out     : Нет
Заполнение пропущенных сэмплов тишиной            : Да
Удаление блоков с тишиной в начале и конце        : Нет
При вычислениях CRC использовались нулевые сэмплы : Да
Интерфейс                                         : Встроенный Win32-интерфейс для Win NT/2000
Выходной формат          : Пользовательский кодировщик
Выбранный битрейт        : 1024 kBit/s
Качество                 : Высокий
Добавление ID3-тега      : Нет
Утилита сжатия           : C:\Program Files (x86)\Exact Audio Copy\Flac\flac.exe
Дополнительные параметры : -V -8 -T "Date=%year%" -T "Genre=%genre%" %source%
TOC извлечённого CD
     Трек |   Старт  | Длительность | Начальный сектор | Конечный сектор
    ---------------------------------------------------------------------
       1  |  0:00.00 |    3:20.00   |           0      |      14999
       2  |  3:20.00 |    4:18.56   |       15000      |      34405
       3  |  7:38.56 |    4:02.73   |       34406      |      52628
       4  | 11:41.54 |    4:13.22   |       52629      |      71625
       5  | 15:55.01 |    3:30.70   |       71626      |      87445
       6  | 19:25.71 |    4:02.59   |       87446      |     105654
       7  | 23:28.55 |    3:16.26   |      105655      |     120380
       8  | 26:45.06 |    4:58.34   |      120381      |     142764
       9  | 31:43.40 |    4:48.00   |      142765      |     164364
      10  | 36:31.40 |    3:05.67   |      164365      |     178306
      11  | 39:37.32 |    4:07.05   |      178307      |     196836
Характеристики диапазона извлечения и сообщения об ошибках
Выбранный диапазон
     Имя файла E:\Torrents-seed\Chicago - 2019 - Christmas\Chicago - Christmas.wav
     Пиковый уровень 100.0 %
     Скорость извлечения 8.5 X
     Качество диапазона 100.0 %
     CRC теста F8BEBDE3
     CRC копии F8BEBDE3
     Копирование... OK
Ошибок не произошло
AccurateRip: сводка
Трек  1  отсутствует в базе данных
Трек  2  отсутствует в базе данных
Трек  3  отсутствует в базе данных
Трек  4  отсутствует в базе данных
Трек  5  отсутствует в базе данных
Трек  6  отсутствует в базе данных
Трек  7  отсутствует в базе данных
Трек  8  отсутствует в базе данных
Трек  9  отсутствует в базе данных
Трек 10  отсутствует в базе данных
Трек 11  отсутствует в базе данных
Ни одного трека нет в базе AccurateRip
Конец отчёта
==== Контрольная сумма отчёта 604FD0167CCB2D840911DDC7AA211171C665188DEA41E3E0C00076ABC1FA71E5 ====
Код: Выделить всё
REM GENRE Jazz
REM DATE 2019
REM DISCID 850A400B
REM COMMENT "ExactAudioCopy v1.3"
PERFORMER "Chicago"
TITLE "Christmas"
REM COMPOSER ""
FILE "Chicago - Christmas.flac" WAVE
  TRACK 01 AUDIO
    TITLE "(Because) It's Christmastime"
    PERFORMER "Chicago"
    REM COMPOSER ""
    INDEX 01 00:00:00
  TRACK 02 AUDIO
    TITLE "All Over The World"
    PERFORMER "Chicago"
    REM COMPOSER ""
    INDEX 01 03:20:00
  TRACK 03 AUDIO
    TITLE "Bring My Baby Back"
    PERFORMER "Chicago"
    REM COMPOSER ""
    INDEX 01 07:38:56
  TRACK 04 AUDIO
    TITLE "Merry Christmas, I Love You (R&B Version)"
    PERFORMER "Chicago"
    REM COMPOSER ""
    INDEX 01 11:41:54
  TRACK 05 AUDIO
    TITLE "What the World Needs Now Is Love"
    PERFORMER "Chicago"
    REM COMPOSER ""
    INDEX 01 15:55:01
  TRACK 06 AUDIO
    TITLE "All Is Right"
    PERFORMER "Chicago"
    REM COMPOSER ""
    INDEX 01 19:25:71
  TRACK 07 AUDIO
    TITLE "Sleigh Ride 2019 "
    PERFORMER "Chicago"
    REM COMPOSER ""
    INDEX 01 23:28:55
  TRACK 08 AUDIO
    TITLE "I'd Do It All Again (Christmas Moon) "
    PERFORMER "Chicago"
    REM COMPOSER ""
    INDEX 01 26:45:06
  TRACK 09 AUDIO
    TITLE "I'm Your Santa Claus"
    PERFORMER "Chicago"
    REM COMPOSER ""
    INDEX 01 31:43:40
  TRACK 10 AUDIO
    TITLE "Here We Come A Caroling"
    PERFORMER "Chicago"
    REM COMPOSER ""
    INDEX 01 36:31:40
  TRACK 11 AUDIO
    TITLE "Merry Christmas, I Love You (Ballad Version)"
    PERFORMER "Chicago"
    REM COMPOSER ""
    INDEX 01 39:37:32
Код: Выделить всё
foobar2000 1.3.17 / Dynamic Range Meter 1.1.1
log date: 2019-11-02 14:42:04
--------------------------------------------------------------------------------
Analyzed: Chicago / Christmas
--------------------------------------------------------------------------------
DR         Peak         RMS     Duration Track
--------------------------------------------------------------------------------
DR7        0.00 dB    -7.90 dB      3:20 01-(Because) It's Christmastime
DR7        0.00 dB    -8.06 dB      4:19 02-All Over The World
DR6        0.00 dB    -7.75 dB      4:03 03-Bring My Baby Back
DR7        0.00 dB    -8.25 dB      4:13 04-Merry Christmas, I Love You (R&B Version)
DR7       -0.01 dB    -7.95 dB      3:31 05-What the World Needs Now Is Love
DR6        0.00 dB    -7.45 dB      4:03 06-All Is Right
DR6        0.00 dB    -7.80 dB      3:16 07-Sleigh Ride 2019
DR9        0.00 dB   -10.52 dB      4:58 08-I'd Do It All Again (Christmas Moon)
DR7        0.00 dB    -8.42 dB      4:48 09-I'm Your Santa Claus
DR7        0.00 dB    -8.50 dB      3:06 10-Here We Come A Caroling
DR8        0.00 dB   -10.44 dB      4:07 11-Merry Christmas, I Love You (Ballad Version)
--------------------------------------------------------------------------------
Number of tracks:  11
Official DR value: DR7
Samplerate:        44100 Hz
Channels:          2
Bits per sample:   16
Bitrate:           919 kbps
Codec:             FLAC
================================================================================
https://www.discogs.com/Chicago-Chicago-Christmas/release/14276731
Это не переиздание и не ремастер предыдущих рождественских альбомов группы (XXV, O Christmas Three), это альбом с совершенно новым материалом без повторов. Причем, как мне показалось, из всех рождественских этот самый интересный.
С наступающим вас Новым Годом и Рождеством!
Правила, инструкции, FAQ!!!
Торрент  Добавлен [09 ноя 2019, 12:38] Скачать торрент Магнет ссылка
Скачать торрент
13.6 КБ

Статус
Проверен 
 
Размер  319.3 МБ
Приватный: Нет (DHT включён)
.torrent скачан  1
Как залить торрент? | Как скачать Torrent? | Как смотреть и слушать онлайн?  
Гость
 


Вернуться в Progressive & Art-Rock

Кто сейчас на конференции

Сейчас этот форум просматривают: нет зарегистрированных пользователей и гости: 0