Как поймать перо Жар-Птицы (2013) DVDRip [H.264]


Статистика раздачи
Размер: 1.45 ГБ | Добавлен: 02 фев 2014, 21:06 | Скачали: 1
Сидеров: 6  [0 байт/сек]    Личеров: 1  [0 байт/сек]

Сообщение Гость » 02 фев 2014, 21:06

Как поймать перо Жар-Птицы (2013) DVDRip

Год выпуска: 2013
Производство: Россия | Кинокомпания СТВ, Руссобит-М, Inlay Film, Wizart Film, Dereza
Жанр: Мультфильм, Фэнтези
Перевод: Не требуется (русский) |Лицензия|
Субтитры: Отсутствуют
Дата мировой премьеры: 24 октября 2013 (Россия, Украина)
Дата российской премьеры: 24 октября 2013, «Наше Кино»
Дата выхода DVD релиза: 26 ноября 2013, «Lizard Cinema Trade»
Дата выхода Blu-Ray релиза: 3 декабря 2013, «Lizard Cinema Trade»
Режиссер: Георгий Гитис, Вячеслав Плотников
Продюсеры: Сергей Сельянов, Александр Лигай, Сергей Рапопорт
Роли озвучивали: Михаил Озеров, Дмитрий Дюжев, Юлия Савичева, Андрей Леонов, Нонна Гришаева, Алексей Колган, Михаил Хрусталев, Анатолий Петров, Юлия Галдун, Владимир Горбунов, Дмитрий Поляновский, Валентина Рычагова
Описание:
Во исполнение воли царя Берендея, младший сын его Иван отправляется на поиски диковинной Жар-птицы. В поисках удачи Ивана Царевича сопровождает верный друг и помощник — Серый Волк, который, обладает всевозможными навыками и всегда спешит на помощь простодушному Ивану. Героев ждут увлекательные и опасные приключения, козни коварных братьев Ивана и его судьбоносная встреча с Еленой Прекрасной. Юные зрители погрузятся в волшебный мир русской сказки, с её традициями и характерной эстетикой, причудливо перемежающейся с приметами современного жанрового кино. Ну, а родители оценят актуальный юмор и модную современную музыку, написанную специально для фильма популярными рок-музыкантами.


Продолжительность: 01:05:55
Качество видео: DVDRip

Видеокодек: MPEG-4 AVC/H.264
Битрейт видео: ~ 2701 Кбит/сек
Размер кадра: 720 x 576@1024 x 576 (1.778) at 25.000 fps : 0.261 Bits/Pixel
Аудиокодек: AC3 5.1
Битрейт аудио: 448 Кбит/сек, 48,0 КГц
Дополнительно: Сохранены оригинальные чаптеры как на DVD
Релиз:
Код:
Код: Выделить всё
Уникальный идентификатор                 : 201415696143516836669340636251562180537 (0x978740862AFCC03B97991B2742CFFFB9)
Полное имя                               : F:\Как поймать перо Жар-Птицы (2013) DVDRip-AVC New-Team  Лицензия\Kak.poimat.pero.Jar-Ptitsy.2013.O.DVDRip.h264.1.45GB.NNM-CLUB.GIU.mkv
Формат                                   : Matroska
Версия формата                           : Version 2
Размер файла                             : 1,45 Гбайт
Продолжительность                        : 1 ч. 5 м.
Общий поток                              : 3151 Кбит/сек
Название фильма                          : Kak.poimat.pero.Jar-Ptitsy.2013.O.DVDRip.h264.1.45GB.NNM-CLUB.GIU
Дата кодирования                         : UTC 2013-11-27 16:37:20
Программа кодирования                    : mkvmerge v2.9.9 ('Tutu') built on Nov 25 2009 21:13:32
Библиотека кодирования                   : libebml v0.7.9 + libmatroska v0.8.1

Видео
Идентификатор                            : 1
Формат                                   : AVC
Формат/Информация                        : Advanced Video Codec
Профиль формата                          :
Параметр CABAC формата                   : Да
Параметр ReFrames формата                : 10 кадров
Идентификатор кодека                     : V_MPEG4/ISO/AVC
Продолжительность                        : 1 ч. 5 м.
Битрейт                                  : 2701 Кбит/сек
Ширина                                   : 720 пикселей
Высота                                   : 576 пикселей
Соотношение сторон                       : 16:9
Режим частоты кадров                     : Постоянный
Частота кадров                           : 25,000 кадров/сек
Стандарт вещания                         : PAL
Цветовое пространство                    : YUV
Субдискретизация насыщенности            : 4:2:0
Битовая глубина                          : 8 бит
Тип развёртки                            : Прогрессивная
Бит/(Пиксели*Кадры)                      : 0.261
Размер потока                            : 1,22 Гбайт (84%)
Заголовок                                : -=Release for NNM-CLUB.RU=-
Библиотека кодирования                   : x264 core 119 r2106 07efeb4
Настройки программы                      : cabac=1 / ref=10 / deblock=1:-3:-3 / analyse=0x3:0x133 / me=umh / subme=7 / psy=1 / psy_rd=0.40:0.00 / mixed_ref=1 / me_range=24 / chroma_me=1 / trellis=2 / 8x8dct=1 / cqm=0 / deadzone=21,11 / fast_pskip=0 / chroma_qp_offset=-2 / threads=12 / sliced_threads=0 / nr=0 / decimate=0 / interlaced=0 / bluray_compat=0 / constrained_intra=0 / bframes=7 / b_pyramid=2 / b_adapt=2 / b_bias=0 / direct=3 / weightb=0 / open_gop=0 / weightp=2 / keyint=250 / keyint_min=25 / scenecut=40 / intra_refresh=0 / rc_lookahead=50 / rc=2pass / mbtree=1 / bitrate=2701 / ratetol=1.0 / qcomp=0.70 / qpmin=0 / qpmax=69 / qpstep=4 / cplxblur=20.0 / qblur=0.5 / ip_ratio=1.40 / aq=1:0.60
Язык                                     : Russian
Default                                  : Нет
Forced                                   : Нет

Аудио
Идентификатор                            : 2
Формат                                   : AC-3
Формат/Информация                        : Audio Coding 3
Расширение режима                        : CM (complete main)
Параметр Endianness формата              : Big
Идентификатор кодека                     : A_AC3
Продолжительность                        : 1 ч. 5 м.
Вид битрейта                             : Постоянный
Битрейт                                  : 448 Кбит/сек
Каналы                                   : 6 каналов
Расположение каналов                     : Front: L C R, Side: L R, LFE
Частота                                  : 48,0 КГц
Битовая глубина                          : 16 бит
Метод сжатия                             : С потерями
Размер потока                            : 211 Мбайт (14%)
Заголовок                                : AC3.448.Kbps (6ch) Russian
Язык                                     : Portuguese
Default                                  : Нет
Forced                                   : Нет

Меню
00:00:00.000                             : :Chapter 01
00:04:34.760                             : :Chapter 02
00:09:22.960                             : :Chapter 03
00:14:17.000                             : :Chapter 04
00:21:04.520                             : :Chapter 05
00:24:35.840                             : :Chapter 06
00:30:13.160                             : :Chapter 07
00:33:08.800                             : :Chapter 08
00:40:49.440                             : :Chapter 09
00:46:32.480                             : :Chapter 10
00:49:47.400                             : :Chapter 11
00:56:31.920                             : :Chapter 12

x264 [info]: profile Main, level 4.1
x264 [info]: frame I:1081 Avg QP: 7.15 size: 89583
x264 [info]: frame P:28561 Avg QP:11.04 size: 26592
x264 [info]: frame B:69253 Avg QP:15.45 size: 6995
x264 [info]: consecutive B-frames: 5.0% 5.0% 31.9% 23.1% 12.6% 17.7% 2.4% 2.4%
Скриншоты:








Правила, инструкции, FAQ!!!
Торрент  Добавлен [02 фев 2014, 21:06] Скачать торрент Магнет ссылка
Скачать торрент
15.36 КБ

Статус
Проверен 
 
Размер  1.45 ГБ
Приватный: Нет (DHT включён)
.torrent скачан  1
Как залить торрент? | Как скачать Torrent? | Как смотреть и слушать онлайн?  
Гость
 


Вернуться в Отечественные мультфильмы (HD Video)

Кто сейчас на конференции

Сейчас этот форум просматривают: нет зарегистрированных пользователей и гости: 0