Казино / Casino (1995) BDRip-HEVC 1080p | | P2, P, A


Статистика раздачи
Размер: 8.7 ГБ | Добавлен: 28 окт 2019, 10:31 | Скачали: 0
Сидеров: 2  [0 байт/сек]    Личеров: 4  [0 байт/сек]

Сообщение K15 » 28 окт 2019, 10:31

Год выхода: 1995
Страна / Студия: США, Франция / Universal Pictures, Syalis DA, Légende Entreprises
Жанр: драма, криминал
Продолжительность: 02:58:33
Перевод: Двухголосый закадровый, авторский одноголосый, многоголосый закадровый
Режиссер: Мартин Скорсезе
В ролях: Роберт Де Ниро, Шэрон Стоун, Джо Пеши, Джеймс Вудс, Фрэнк Винсент, Паскуале Кайано, Кевин Поллак, Дон Риклз, Винни Велла, Алан Кинг, Л.К. Джонс, Дик Смотерз

Описание: Никто не может сравниться с Сэмом Ротстином. Никто не умеет зарабатывать деньги, как он. Никто не умеет работать так самоотверженно и аккуратно, как трудяга Сэм. За свои неоспоримые достоинства Ротстин получил кличку «Ас». И именно поэтому боссы мафии решили отправить Аса заправлять огромным шикарным казино в Лас-Вегасе. А чтобы Сэму никто не мешал работать, мафиози отправили вслед за Асом друга детства Ротстина — Никки Санторо, отпетого бандита и безжалостного головореза.

Качество: BDRip 1080p
Видео: HEVC/H.265, 1920x816, ~5250 Kbps
Аудио 1: AC3, 6 ch, 448 Kbps - Русский, DVO (BD CEE)
Аудио 2: AC3, 2 ch, 192 Kbps - Русский, MVO (ОРТ)
Аудио 3: AC3, 2 ch, 192 Kbps - Русский, DVO (Рен.ТВ)
Аудио 4: AC3, 6 ch, 448 Kbps - Русский, AVO (Гаврилов)
Аудио 5: AC3, 6 ch, 448 Kbps - Английский
Субтитры: Русские (форсированные, полные), английские (полные, SDH)



Общее
Уникальный идентификатор : 65284461172413795050518792578983311342 (0x311D547232879822606108F0FFD0B7EE)
Полное имя : R:Casino. 1995. 1080p. HEVC. 10bit.mkv
Формат : Matroska
Версия формата : Version 4 / Version 2
Размер файла : 8,70 Гбайт
Продолжительность : 2 ч. 58 м.
Общий поток : 6974 Кбит/сек
Дата кодирования : UTC 2019-10-23 17:43:08
Программа кодирования : mkvmerge v28.2.0 ('The Awakening') 64-bit
Библиотека кодирования : libebml v1.3.6 + libmatroska v1.4.9
Обложка : Yes
Attachments : cover.jpg

Видео
Идентификатор : 1
Формат : HEVC
Формат/Информация : High Efficiency Video Coding
Профиль формата : Main 10@L4@Main
Идентификатор кодека : V_MPEGH/ISO/HEVC
Продолжительность : 2 ч. 58 м.
Битрейт : 5250 Кбит/сек
Ширина : 1920 пикселей
Высота : 816 пикселей
Соотношение сторон : 2,35:1
Режим частоты кадров : Постоянный
Частота кадров : 23,976 (24000/1001) кадра/сек
Цветовое пространство : YUV
Субдискретизация насыщенности : 4:2:0
Битовая глубина : 10 бит
Бит/(Пиксели*Кадры) : 0.140
Размер потока : 6,54 Гбайт (75%)
Библиотека кодирования : x265 3.2+5-354901970679:[Windows][GCC 9.2.0][64 bit] 10bit
Настройки программы : cpuid=1111039 / frame-threads=3 / numa-pools=8 / wpp / no-pmode / no-pme / no-psnr / no-ssim / log-level=2 / input-csp=1 / input-res=1920x816 / interlace=0 / total-frames=256548 / level-idc=0 / high-tier=1 / uhd-bd=0 / ref=4 / no-allow-non-conformance / no-repeat-headers / annexb / no-aud / no-hrd / info / hash=0 / no-temporal-layers / open-gop / min-keyint=23 / keyint=250 / gop-lookahead=0 / bframes=4 / b-adapt=2 / b-pyramid / bframe-bias=0 / rc-lookahead=25 / lookahead-slices=4 / scenecut=40 / radl=0 / no-splice / no-intra-refresh / ctu=64 / min-cu-size=8 / rect / no-amp / max-tu-size=32 / tu-inter-depth=1 / tu-intra-depth=1 / limit-tu=0 / rdoq-level=2 / dynamic-rd=0.00 / no-ssim-rd / signhide / no-tskip / nr-intra=0 / nr-inter=0 / no-constrained-intra / strong-intra-smoothing / max-merge=3 / limit-refs=3 / limit-modes / me=3 / subme=3 / merange=57 / temporal-mvp / no-frame-dup / no-hme / weightp / no-weightb / no-analyze-src-pics / deblock=0:0 / no-sao / no-sao-non-deblock / rd=4 / selective-sao=0 / no-early-skip / rskip / no-fast-intra / no-tskip-fast / no-cu-lossless / no-b-intra / no-splitrd-skip / rdpenalty=0 / psy-rd=2.00 / psy-rdoq=1.00 / no-rd-refine / no-lossless / cbqpoffs=0 / crqpoffs=0 / rc=abr / bitrate=5250 / qcomp=0.60 / qpstep=4 / stats-write=0 / stats-read=2 / cplxblur=20.0 / qblur=0.5 / ipratio=1.40 / pbratio=1.30 / aq-mode=3 / aq-strength=1.00 / cutree / zone-count=0 / no-strict-cbr / qg-size=32 / no-rc-grain / qpmax=69 / qpmin=0 / no-const-vbv / sar=0 / overscan=0 / videoformat=5 / range=0 / colorprim=2 / transfer=2 / colormatrix=2 / chromaloc=0 / display-window=0 / cll=0,0 / min-luma=0 / max-luma=1023 / log2-max-poc-lsb=8 / vui-timing-info / vui-hrd-info / slices=1 / no-opt-qp-pps / no-opt-ref-list-length-pps / multi-pass-opt-rps / scenecut-bias=0.05 / no-opt-cu-delta-qp / aq-motion / no-hdr / no-hdr-opt / no-dhdr10-opt / no-idr-recovery-sei / analysis-reuse-level=5 / scale-factor=0 / refine-intra=0 / refine-inter=0 / refine-mv=1 / refine-ctu-distortion=0 / no-limit-sao / ctu-info=0 / no-lowpass-dct / refine-analysis-type=0 / copy-pic=1 / max-ausize-factor=1.0 / no-dynamic-refine / no-single-sei / no-hevc-aq / no-svt / no-field / qp-adaptation-range=1.00
Default : Да
Forced : Нет

Аудио #1
Идентификатор : 2
Формат : AC-3
Формат/Информация : Audio Coding 3
Идентификатор кодека : A_AC3
Продолжительность : 2 ч. 58 м.
Вид битрейта : Постоянный
Битрейт : 448 Кбит/сек
Каналы : 6 каналов
Расположение каналов : Front: L C R, Side: L R, LFE
Частота : 48,0 КГц
Частота кадров : 31,250 кадров/сек (1536 SPF)
Битовая глубина : 16 бит
Метод сжатия : С потерями
Размер потока : 571 Мбайт (6%)
Заголовок : DVO (BD CEE)
Язык : Russian
ServiceKind/ : Complete Main
Default : Да
Forced : Нет

Аудио #2
Идентификатор : 3
Формат : AC-3
Формат/Информация : Audio Coding 3
Идентификатор кодека : A_AC3
Продолжительность : 2 ч. 58 м.
Вид битрейта : Постоянный
Битрейт : 192 Кбит/сек
Каналы : 2 канала
Расположение каналов : Front: L R
Частота : 48,0 КГц
Частота кадров : 31,250 кадров/сек (1536 SPF)
Битовая глубина : 16 бит
Метод сжатия : С потерями
Размер потока : 245 Мбайт (3%)
Заголовок : MVO (ORT)
Язык : Russian
ServiceKind/ : Complete Main
Default : Нет
Forced : Нет

Аудио #3
Идентификатор : 4
Формат : AC-3
Формат/Информация : Audio Coding 3
Идентификатор кодека : A_AC3
Продолжительность : 2 ч. 58 м.
Вид битрейта : Постоянный
Битрейт : 192 Кбит/сек
Каналы : 2 канала
Расположение каналов : Front: L R
Частота : 48,0 КГц
Частота кадров : 31,250 кадров/сек (1536 SPF)
Битовая глубина : 16 бит
Метод сжатия : С потерями
Размер потока : 245 Мбайт (3%)
Заголовок : DVO (REN.TV)
Язык : Russian
ServiceKind/ : Complete Main
Default : Нет
Forced : Нет

Аудио #4
Идентификатор : 5
Формат : AC-3
Формат/Информация : Audio Coding 3
Идентификатор кодека : A_AC3
Продолжительность : 2 ч. 58 м.
Вид битрейта : Постоянный
Битрейт : 448 Кбит/сек
Каналы : 6 каналов
Расположение каналов : Front: L C R, Side: L R, LFE
Частота : 48,0 КГц
Частота кадров : 31,250 кадров/сек (1536 SPF)
Битовая глубина : 16 бит
Метод сжатия : С потерями
Размер потока : 572 Мбайт (6%)
Заголовок : AVO (Гаврилов)
Язык : Russian
ServiceKind/ : Complete Main
Default : Нет
Forced : Нет

Аудио #5
Идентификатор : 6
Формат : AC-3
Формат/Информация : Audio Coding 3
Идентификатор кодека : A_AC3
Продолжительность : 2 ч. 58 м.
Вид битрейта : Постоянный
Битрейт : 448 Кбит/сек
Каналы : 6 каналов
Расположение каналов : Front: L C R, Side: L R, LFE
Частота : 48,0 КГц
Частота кадров : 31,250 кадров/сек (1536 SPF)
Битовая глубина : 16 бит
Метод сжатия : С потерями
Размер потока : 572 Мбайт (6%)
Заголовок : Английский
Язык : English
ServiceKind/ : Complete Main
Default : Нет
Forced : Нет

Текст #1
Идентификатор : 7
Формат : UTF-8
Идентификатор кодека : S_TEXT/UTF8
Идентификатор кодека/Информация : UTF-8 Plain Text
Продолжительность : 2 ч. 51 м.
Битрейт : 0 бит/сек
ElementCount : 24
Размер потока : 862 байт (0%)
Заголовок : RUS. Forced
Язык : Russian
Default : Да
Forced : Нет

Текст #2
Идентификатор : 8
Формат : UTF-8
Идентификатор кодека : S_TEXT/UTF8
Идентификатор кодека/Информация : UTF-8 Plain Text
Продолжительность : 2 ч. 51 м.
Битрейт : 146 бит/сек
ElementCount : 2736
Размер потока : 183 Кбайт (0%)
Заголовок : RUS Full
Язык : Russian
Default : Нет
Forced : Нет

Текст #3
Идентификатор : 9
Формат : UTF-8
Идентификатор кодека : S_TEXT/UTF8
Идентификатор кодека/Информация : UTF-8 Plain Text
Продолжительность : 2 ч. 55 м.
Битрейт : 104 бит/сек
ElementCount : 3643
Размер потока : 134 Кбайт (0%)
Заголовок : ENG Full
Язык : English
Default : Нет
Forced : Нет

Текст #4
Идентификатор : 10
Формат : UTF-8
Идентификатор кодека : S_TEXT/UTF8
Идентификатор кодека/Информация : UTF-8 Plain Text
Продолжительность : 2 ч. 55 м.
Битрейт : 104 бит/сек
ElementCount : 3643
Размер потока : 134 Кбайт (0%)
Заголовок : ENG. SDH
Язык : English
Default : Нет
Forced : Нет

Меню
00:00:00.000 : en:Chapter 01
00:04:55.461 : en:Chapter 02
00:21:58.191 : en:Chapter 03
00:27:49.376 : en:Chapter 04
00:33:46.649 : en:Chapter 05
00:38:57.126 : en:Chapter 06
00:58:22.999 : en:Chapter 07
01:06:11.008 : en:Chapter 08
01:26:24.512 : en:Chapter 09
01:31:49.545 : en:Chapter 10
02:00:29.305 : en:Chapter 11
02:14:10.208 : en:Chapter 12
02:28:31.402 : en:Chapter 13
02:39:55.586 : en:Chapter 14
02:46:56.172 : en:Chapter 15
02:50:11.910 : en:Chapter 16


Правила, инструкции, FAQ!!!
Торрент  Добавлен [28 окт 2019, 10:31] Скачать торрент Магнет ссылка
Скачать торрент
44.45 КБ

Статус
Проверен K15 (28 окт 2019, 10:32)
 
Размер  8.7 ГБ
Приватный: Нет (DHT включён)
.torrent скачан  0
Как залить торрент? | Как скачать Torrent? | Как смотреть и слушать онлайн?  
K15
Супермодератор
 
Раздал: 3.51 ГБ
Скачал: 9.62 ГБ
Ратио: 0.365
Сообщения: 90
Стаж: 31 май 2019, 16:28


Вернуться в 720p | 1080p

Кто сейчас на конференции

Сейчас этот форум просматривают: нет зарегистрированных пользователей и гости: 0