Котенок по имени Гав. Сборник мультфильмов (1953-1988) [1080p] BDRip


Статистика раздачи
Размер: 6.56 ГБ | Добавлен: 29 дек 2014, 23:51 | Скачали: 49
Сидеров: 36  [0 байт/сек]    Личеров: 3  [0 байт/сек]

Сообщение Гость » 29 дек 2014, 23:51

Выпущено: СССР
Год выпуска: 1953-1988
Жанр: Детский, Рисованая анимация
Язык: Русский
Субтитры: нет

Описание фильма:
В «Золотой коллекции анимации» «Крупный план» выпустил сборник отреставрированных мультфильмов «Котенок по имени Гав» (© ФГУП Киностудия «Союзмультфильм).
Подготовка исходных киноматериалов – Госфильмофонд России.
Цифровая перезапись оригиналов фонограмм – Научно-исследовательский кинофотоинститут (НИКФИ).
Покадровая цифровая реставрация изображения, ремастеринг звука и авторинг проведены объединением «Крупный план».

Режиссер: Л.Атаманов, М.Мирошкина, Л.Шварцман
Роли озвучивали: Мария Виноградова, Александр Баранов, Татьяна Решетникова, Василий Ливанов
Продолжительность: 01:54:40


Видеокодек: MPEG-4 AVC
Битрейт видео: ~7740 Кбит/сек
Размер кадра: 1424х1072 (4:3)
Качество видео: BDRip
Аудио: Русский: 48 kHz, AC3 Dolby Digital, 3/2 (L,C,R,l,r) + LFE ch, ~448.00 kbps avg
1. Котенок по имени Гав. 1
рисованный , 9 мин. 27 сек.
Союзмультфильм, 1976 г.
режиссер Лев Атаманов
Жил-был котенок. Он носил смешное имя Гав. Из-за этого с ним все время случались разные истории. Иногда веселые, иногда грустные
Истории: "Одни неприятности", "Где лучше бояться", "Середина сосиски"

2. Котенок по имени Гав. 2
рисованный , 9 мин. 24 сек.
Союзмультфильм, 1977 г.
режиссер Лев Атаманов
Истории: "Так нечестно", "Когда начинают кусаться?", "Хорошо спрятанная котлета"

3. Котенок по имени Гав. 3
рисованный , 9 мин. 12 сек.
Союзмультфильм, 1979 г.
режиссер Лев Атаманов
Третий фильм о приключениях котенка со смешным именем ГАВ.

4. Котенок по имени Гав. 4
рисованный , 9 мин. 11 сек.
Союзмультфильм, 1980 г.
режиссер Лев Атаманов
Истории: "Секретный язык", "А все-таки она вкусная!" и "Дрыг и прыг"

5. Котенок по имени Гав. 5
рисованный , 7 мин. 56 сек.
Союзмультфильм, 1982 г.
режиссеры Майя Мирошкина и Леонид Шварцман
Последний фильм серии. Для малышей

6. Непослушный котенок
рисованный , 10 мин. 48 сек.
Союзмультфильм, 1953 г.
режиссер Мстислав Пащенко
Котенок не послушался хозяйку, ушел в лес и, конечно, был наказан. Потому что заблудился, промок под дождем, натерпелся страху. Но с помощью добрых лесных зверушек все же вернулся домой и обещал больше никогда-никогда ...
Награды I МКФ В Дурбане (ЮАР), 1954 -- Бронзовая медаль


7. Почему ушел котенок?
кукольный , 10 мин. 6 сек.
Союзмультфильм, 1957 г.
режиссер Михаил Калинин
История о взаимоотношениях мальчика Вовы и котенка Дымка. Вова совсем забыл о котенке и котенок ушел от Вовы, но возможно он ещё вернется…
Для малышей


8. Как котенку построили дом
кукольный , 10 мин. 42 сек
Союзмультфильм, 1963 г.
режиссер Роман Качанов
О том, как строительные машины маленькому котенку построили новый красивый дом.
Для малышей


9. Жадный Кузя
кукольный с натурой , 10 мин. 48 сек.
Союзмультфильм, 1969 г.
режиссеры Михаил Каменецкий, Иван Уфимцев
О коте Кузе, который все норовил утащить лакомый кусочек и нажил себе немало неприятностей. Живой кот в кукольном мире.
Для малышей


10. Вот так тигр!
рисованный , 10 мин.
Союзмультфильм, 1963 г.
режиссер Александр Трусов
О том, как котенок вообразил себя тигром, но никого не смог напугать, кроме мышонка.
Для малышей.
Награды: МФ детских фильмов в Никочеа (Аргентина), 1963 -- Вторая премия
Серебряный Кубок


11. Как стать большим
кукольный , 9 мин. 32 сек.
Союзмультфильм, 1967 г.
режиссер Владимир Дегтярев
О котенке, который хотел поскорее вырасти.
Для малышей


12. Котенок с улицы Лизюкова
рисованный , 9 мин. 15 сек.
Союзмультфильм, 1988 г.
режиссер Вячеслав Котеночкин
О том, как котенок хотел превратиться в зверя, которого бы все боялись.
Общее
Уникальный идентификатор : 183282256358401171673529183211452875476 (0x89E2E0EA96E35525A24CA7E41F83C2D4)
Полное имя : E:\NNM-CLUB\Котёнок по имени Гав\Kotenok.po.imeni.Gav.н264.BDRip1080p.mkv
Формат : Matroska
Версия формата : Version 2
Размер файла : 2,71 Гбайт
Продолжительность : 45 м.
Общий поток : 8449 Кбит/сек
Дата кодирования : UTC 2011-12-08 06:38:45
Программа кодирования : mkvmerge v5.1.0 ('And so it goes') built on Nov 28 2011 23:58:28
Библиотека кодирования : libebml v1.2.3 + libmatroska v1.3.0

Видео
Идентификатор : 1
Формат : AVC
Формат/Информация : Advanced Video Codec
Профиль формата :
Параметр CABAC формата : Да
Параметр ReFrames формата : 4 кадра
Идентификатор кодека : V_MPEG4/ISO/AVC
Продолжительность : 45 м.
Битрейт : 7740 Кбит/сек
Ширина : 1424 пикселя
Высота : 1072 пикселя
Соотношение сторон : 4:3
Режим частоты кадров : Постоянный
Частота кадров : 25,000 кадров/сек
Цветовое пространство : YUV
Субдискретизация насыщенности : 4:2:0
Битовая глубина : 8 бит
Тип развёртки : Прогрессивная
Бит/(Пиксели*Кадры) : 0.203
Размер потока : 2,51 Гбайт (93%)
Библиотека кодирования : x264 core 120 r2119 0637cd6
Настройки программы : cabac=1 / ref=4 / deblock=1:1:1 / analyse=0x3:0x113 / me=umh / subme=9 / psy=1 / psy_rd=1.00:0.00 / mixed_ref=1 / me_range=32 / chroma_me=1 / trellis=1 / 8x8dct=1 / cqm=0 / deadzone=21,11 / fast_pskip=0 / chroma_qp_offset=-2 / threads=6 / sliced_threads=0 / nr=0 / decimate=1 / interlaced=0 / bluray_compat=0 / constrained_intra=0 / bframes=8 / b_pyramid=2 / b_adapt=2 / b_bias=0 / direct=1 / weightb=1 / open_gop=0 / weightp=2 / keyint=250 / keyint_min=23 / scenecut=40 / intra_refresh=0 / rc_lookahead=50 / rc=2pass / mbtree=1 / bitrate=7740 / ratetol=1.0 / qcomp=0.80 / qpmin=10 / qpmax=69 / qpstep=4 / cplxblur=20.0 / qblur=0.5 / ip_ratio=1.40 / aq=1:1.00
Язык : English
Default : Да
Forced : Нет

Аудио
Идентификатор : 2
Формат : AC-3
Формат/Информация : Audio Coding 3
Расширение режима : CM (complete main)
Параметр Endianness формата : Big
Идентификатор кодека : A_AC3
Продолжительность : 45 м.
Вид битрейта : Постоянный
Битрейт : 448 Кбит/сек
Каналы : 6 каналов
Расположение каналов : Front: L C R, Side: L R, LFE
Частота : 48,0 КГц
Битовая глубина : 16 бит
Метод сжатия : С потерями
Размер потока : 147 Мбайт (5%)
Язык : Russian
Default : Да
Forced : Нет

Меню
00:00:00.000 : en:00:00:00.000
00:09:37.640 : en:00:09:37.640
00:19:11.160 : en:00:19:11.160
00:28:32.480 : en:00:28:32.480
00:37:50.680 : en:00:37:50.680
00:45:54.760 : en:00:45:54.760
Общее
Уникальный идентификатор : 175191397731421170103843162633666870813 (0x83CCA2C99F1A110398C939006014BE1D)
Полное имя : E:\NNM-CLUB\Котёнок по имени Гав\Sbornik.s.multami.н264.1957-1988.BDRip1080p.mkv
Формат : Matroska
Версия формата : Version 2
Размер файла : 3,85 Гбайт
Продолжительность : 1 ч. 8 м.
Общий поток : 8019 Кбит/сек
Дата кодирования : UTC 2011-12-08 06:39:48
Программа кодирования : mkvmerge v5.1.0 ('And so it goes') built on Nov 28 2011 23:58:28
Библиотека кодирования : libebml v1.2.3 + libmatroska v1.3.0

Видео
Идентификатор : 1
Формат : AVC
Формат/Информация : Advanced Video Codec
Профиль формата :
Параметр CABAC формата : Да
Параметр ReFrames формата : 4 кадра
Идентификатор кодека : V_MPEG4/ISO/AVC
Продолжительность : 1 ч. 8 м.
Битрейт : 7412 Кбит/сек
Ширина : 1424 пикселя
Высота : 1072 пикселя
Соотношение сторон : 4:3
Режим частоты кадров : Постоянный
Частота кадров : 25,000 кадров/сек
Цветовое пространство : YUV
Субдискретизация насыщенности : 4:2:0
Битовая глубина : 8 бит
Тип развёртки : Прогрессивная
Бит/(Пиксели*Кадры) : 0.194
Размер потока : 3,56 Гбайт (92%)
Язык : English
Default : Да
Forced : Нет

Аудио
Идентификатор : 2
Формат : AC-3
Формат/Информация : Audio Coding 3
Расширение режима : CM (complete main)
Параметр Endianness формата : Big
Идентификатор кодека : A_AC3
Продолжительность : 1 ч. 8 м.
Вид битрейта : Постоянный
Битрейт : 448 Кбит/сек
Каналы : 6 каналов
Расположение каналов : Front: L C R, Side: L R, LFE
Частота : 48,0 КГц
Битовая глубина : 16 бит
Метод сжатия : С потерями
Задержка видео : 24 мс.
Размер потока : 220 Мбайт (6%)
Язык : Russian
Default : Да
Forced : Нет

Меню
00:00:00.000 : en:00:45:54.760
00:10:11.960 : en:00:56:07.200
00:19:39.440 : en:01:05:34.680
00:29:10.160 : en:01:15:05.400
00:39:28.840 : en:01:25:24.080
00:49:09.960 : en:01:35:05.200
00:59:25.920 : en:01:45:21.160
Сценарий написан по одноимённым сказкам Григория Остера.
[center]Скриншоты:




Релиз от:
Правила, инструкции, FAQ!!!
Торрент  Добавлен [29 дек 2014, 23:51] Скачать торрент Магнет ссылка
Скачать торрент
33.72 КБ

Статус
Проверен 
 
Размер  6.56 ГБ
Приватный: Нет (DHT включён)
.torrent скачан  49
Как залить торрент? | Как скачать Torrent? | Как смотреть и слушать онлайн?  
Гость
 


Вернуться в Отечественные мультфильмы (HD Video)

Кто сейчас на конференции

Сейчас этот форум просматривают: нет зарегистрированных пользователей и гости: 0