Любовный напиток №9 / Love Potion No. 9 [Фэнтези, мелодрама, комедия, 1992] WEB-DL, Mvo


Статистика раздачи
Размер: 745.85 МБ | Добавлен: 22 июн 2019, 13:54 | Скачали: 0
Сидеров: 0  [0 байт/сек]    Личеров: 0  [0 байт/сек]

Сообщение K15 » 22 июн 2019, 13:54

Информация о фильме
Название: Любовный напиток №9
Оригинальное название: Love Potion No. 9
Год выхода: 1992
Жанр: Фэнтези, мелодрама, комедия
Режиссер: Дейл Лонер
В ролях: Сандра Баллок, Тэйт Донован, Эдриан Пол, Дэйл Мидкифф, Мэри Мара, Хиллари Бэйли Смит, Дилан Бэйкер, Блэйк Кларк, Брюс МакКарти, Энн Бэнкрофт

О фильме: В 90-е года в мире науки стало возможно все — или почти все. В том числе и мечта всех одиноких мужчин и женщин — любовный эликсир, во власти которого заставить всех представителей противоположного пола мгновенно и безумно в тебя влюбиться. Молодые ученые Пол и Диана, одинокие, застенчивые и увлеченные только своей работой, изобрели эликсир любви. И, после успешных испытаний на животных, приняв «на грудь» божественный эликсир, пустились в легкомысленные амурные приключения.



Страна: США
Продолжительность: 01:32:37
Перевод: Профессиональный (многоголосый,закадровый) Инис

Файл
Кодек: H.264
Качество: WEB-DL
Видео: 736x414, 25.000 fps, 1048 kb/s
Звук: AAC, 2ch, 76kbps
General
Unique ID : 258923303293395475487482843243359003761 (0xC2CAD076B3943CC3C3DC811357B86471)
Complete name : C:UsersПашаDownloadsЛюбовный напиток №9.mkv
Format : Matroska
Format version : Version 4
File size : 746 MiB
Duration : 1 h 32 min
Overall bit rate : 1 126 kb/s
Encoded date : UTC 2019-06-22 08:20:51
Writing application : mkvmerge v33.1.0 ('Primrose') 64-bit
Writing library : libebml v1.3.7 + libmatroska v1.5.0
Cover : Yes
Attachments : cover.jpg

Video
ID : 1
Format : AVC
Format/Info : Advanced Video Codec
Format profile : High@L4.1
Format settings : CABAC / 12 Ref Frames
Format settings, CABAC : Yes
Format settings, ReFrames : 12 frames
Codec ID : V_MPEG4/ISO/AVC
Duration : 1 h 32 min
Bit rate : 1 048 kb/s
Width : 736 pixels
Height : 414 pixels
Display aspect ratio : 16:9
Frame rate mode : Constant
Frame rate : 25.000 FPS
Color space : YUV
Chroma subsampling : 4:2:0
Bit depth : 8 bits
Scan type : Progressive
Bits/(Pixel*Frame) : 0.138
Stream size : 694 MiB (93%)
Title : Rip by donadar
Writing library : x264 core 146 r2538 121396c
Encoding settings : cabac=1 / ref=12 / deblock=1:-3:-3 / analyse=0x3:0x113 / me=umh / subme=10 / psy=1 / psy_rd=1.00:0.15 / mixed_ref=1 / me_range=32 / chroma_me=1 / trellis=2 / 8x8dct=1 / cqm=0 / deadzone=21,11 / fast_pskip=0 / chroma_qp_offset=-3 / threads=8 / lookahead_threads=1 / sliced_threads=0 / nr=0 / decimate=0 / interlaced=0 / bluray_compat=0 / constrained_intra=0 / bframes=12 / b_pyramid=2 / b_adapt=2 / b_bias=0 / direct=3 / weightb=1 / open_gop=0 / weightp=2 / keyint=250 / keyint_min=25 / scenecut=40 / intra_refresh=0 / rc_lookahead=40 / rc=2pass / mbtree=1 / bitrate=1048 / ratetol=1.0 / qcomp=0.60 / qpmin=0 / qpmax=69 / qpstep=4 / cplxblur=20.0 / qblur=0.5 / vbv_maxrate=14000 / vbv_bufsize=14000 / nal_hrd=none / filler=0 / ip_ratio=1.40 / aq=3:1.00
Language : English
Default : Yes
Forced : No

Audio
ID : 2
Format : AAC LC
Format/Info : Advanced Audio Codec Low Complexity
Codec ID : A_AAC-2
Duration : 1 h 32 min
Bit rate : 76.0 kb/s
Channel(s) : 2 channels
Channel layout : L R
Sampling rate : 48.0 kHz
Frame rate : 46.875 FPS (1024 SPF)
Compression mode : Lossy
Delay relative to video : 9 ms
Stream size : 50.3 MiB (7%)
Language : Russian
Default : Yes
Forced : No

Правила, инструкции, FAQ!!!
Торрент  Добавлен [22 июн 2019, 13:54] Скачать торрент Магнет ссылка
Скачать торрент
15.44 КБ

Статус
Проверен K15 (22 июн 2019, 13:54)
 
Размер  745.85 МБ
Приватный: Нет (DHT включён)
.torrent скачан  0
Как залить торрент? | Как скачать Torrent? | Как смотреть и слушать онлайн?  
K15
Супермодератор
Аватара пользователя
 
Раздал: 3.51 ГБ
Скачал: 6.8 ГБ
Ратио: 0.516
Сообщения: 77
Стаж: 31 май 2019, 16:28



Вернуться в Драмы, Мелодрамы

Кто сейчас на конференции

Сейчас этот форум просматривают: нет зарегистрированных пользователей и гости: 0