[SACD-R][OF] Mahler: Songs of a Wayfarer; Symphony No.1 in D Major, "Titan" (Benjamin Zander, Philharmonia Orchestra, Christopher Maltman) - 2005 (Classical/Orchestral)


Статистика раздачи
Размер: 3.99 ГБ | Добавлен: 20 окт 2019, 10:28 | Скачали: 2
Сидеров: 1  [0 байт/сек]    Личеров: 0  [0 байт/сек]

Сообщение Гость » 20 окт 2019, 10:28

Mahler:
Songs of a Wayfarer
Symphony No.1 in D Major, "Titan"

Benjamin Zander, Philharmonia Orchestra

Формат записи/Источник записи: [SACD-R][OF]
Наличие водяных знаков: Нет
Год издания/переиздания диска: 2005
Жанр: Classical/Orchestral
Издатель (лейбл): Telarc
Продолжительность: 01:08:04
Наличие сканов в содержимом раздачи: Только обложка альбома
Треклист:
Lieder Eines Fahrenden Gesellen (Songs Of A Wayfarer)
1. I. Wenn Mein Schatz Hochzeit Macht. 4:08
2. II.Ging Heut' Morgen Über's Feld. 3:54
3. III. Ich Hab' Ein Glühend Messer. 3:09
4. IV. Die Zwei Blauen Augen Von Meinem Schatz. 4:55
Symphony No. 1 In D Major "Titan".
5. I. Langsam. Schleppend. 14:07
6. II. Kräftig Bewegt. 7:03
7. III. Feierlich Und Gemessen, Ohne Zu Schleppen. 11:15
8. IV. Stürmisch Bewegt. 19:29
Christopher Maltman, baritone
Benjamin Zander
Philharmonia Orchestra
Контейнер: ISO (*.iso)
Тип рипа: image
Разрядность: 64(2,8 MHz/1 Bit)
Формат: DST64
Количество каналов: 5.1, 2.0
Доп. информация: Engineer – Jack Renner
Producer – Elaine Martone
Telarc Surround ‎– 2SACD-60626
Источник (релизер): собственный рип от ehondik
https://www.amazon.co.uk/Mahler-Symphony-Lieder-Fahrenden-Gesellen/dp/B000BFH27I
Код: Выделить всё
foobar2000 1.3.10 / Dynamic Range Meter 1.1.1
log date: 2019-09-25 12:38:07
--------------------------------------------------------------------------------
Analyzed: Benjamin Zander \ Philharmonia Orchestra / Mahler: Songs of a Wayfarer \ Symphony No.1 in D Major, "Titan"
--------------------------------------------------------------------------------
DR         Peak         RMS     Duration Track
--------------------------------------------------------------------------------
DR15     -11.71 dB   -34.25 dB      4:08 01-Songs of a Wayfarer: I. Wenn mein Schatz Hochzeit macht
DR15      -6.56 dB   -29.88 dB      3:55 02-Songs of a Wayfarer: II. Ging heut' morgen ьber's Feld
DR15      -3.60 dB   -25.13 dB      3:09 03-Songs of a Wayfarer: III. Ich hab' ein glьhend Messer
DR13     -17.87 dB   -36.19 dB      4:55 04-Songs of a Wayfarer: IV. Die zwei blauen Augen
DR16      -3.80 dB   -26.97 dB     14:07 05-Symphony No. 1 "Titan": I. Langsam. Schleppend
DR14      -3.92 dB   -23.34 dB      7:03 06-Symphony No. 1 "Titan": II. Krдftig bewegt
DR17      -8.80 dB   -33.42 dB     11:16 07-Symphony No. 1 "Titan": III. Feierlich und gemessen ohne zu schleppen
DR14      -3.63 dB   -23.08 dB     19:30 08-Symphony No. 1 "Titan": IV. Stьmisch bewegt
--------------------------------------------------------------------------------
Number of tracks:  8
Official DR value: DR15
Samplerate:        2822400 Hz / PCM Samplerate: 44100 Hz
Channels:          2
Bits per sample:   1
Bitrate:           5645 kbps
Codec:             DST64
================================================================================
Спасибо ehondik за предоставленный рип.
Образ заменен на исправный. Раздача обновлена 24.09.2019 в 23:00.
Прошу всех взять новый торрент-файл и перекачать.
Правила, инструкции, FAQ!!!
Торрент  Добавлен [20 окт 2019, 10:28] Скачать торрент Магнет ссылка
Скачать торрент
80.51 КБ

Статус
Проверен 
 
Размер  3.99 ГБ
Приватный: Нет (DHT включён)
.torrent скачан  2
Как залить торрент? | Как скачать Torrent? | Как смотреть и слушать онлайн?  
Гость
 


Вернуться в Классика и классика в современной обработке (многоканальная музыка)

Кто сейчас на конференции

Сейчас этот форум просматривают: нет зарегистрированных пользователей и гости: 0