Маленькие Эйнштейны / Little Einsteins / Сезон: 1-2 / Серии: 6 (Энди Том) [2005-2009, обучающее видео, SATRip / DVDRip] DUB


Статистика раздачи
Размер: 2.06 ГБ | Добавлен: 28 янв 2015, 00:13 | Скачали: 3
Сидеров: 93  [0 байт/сек]    Личеров: 214  [0 байт/сек]

Сообщение Гость » 28 янв 2015, 00:13

Маленькие Эйнштейны / Little Einsteins

Страна: США
Режиссер: Энди Том
Жанр: обучающее видео
Сезон (количество): 1-2
Серии (количество): 6
Продолжительность: 00:23:05
Год выпуска: 2005-2009
Перевод: Профессиональный (полное дублирование)
Русские субтитры: нет



Познавательный мультсериал из коллекции «Узнавайка». Команда Маленьких Эйнштейнов открывает удивительный мир музыки, искусства и науки...

Список серий:

1 сезон
12. Энни очень храбрая
13. Мышонок и Луна
14. Рыцарь добрый, рыцарь злой
17. Прыг-скок Джоуи
26. Поздравительная машинка

Спец. выпуски:
- Ракета спасает Жар-Птицу

Качество : SATRip (12, 13, 14, 17)
Формат: AVI
Видео кодек: DivX / XviD
Аудио кодек: MP3
Видео: 640x480 25.00fps 1615kbps
Аудио: MPEG Audio Layer 3 48000Hz stereo 192kbps

Качество : DVDRip (Ракета спасает Жар-Птицу, 26)
Формат: AVI
Видео кодек: DivX
Аудио кодек: MP3
Видео: 720x528 23.98fps 1224 Kbps
Аудио: MPEG Audio Layer 3 48000Hz stereo 192kbps
General
Complete name : Little Einsteins\Enni.ochen.hrabraya.DIVX.SATRip.480p.rus.divx
Format : AVI
Format/Info : Audio Video Interleave
File size : 300 MiB
Duration : 23mn 5s
Overall bit rate : 1 816 Kbps

Video
ID : 0
Format : MPEG-4 Visual
Format settings, BVOP : Yes
Format settings, QPel : No
Format settings, GMC : No warppoints
Format settings, Matrix : Default (H.263)
Muxing mode : Packed bitstream
Codec ID : DX50
Codec ID/Hint : DivX 5
Duration : 23mn 5s
Bit rate : 1 615 Kbps
Width : 640 pixels
Height : 480 pixels
Display aspect ratio : 4:3
Frame rate : 25.000 fps
Color space : YUV
Chroma subsampling : 4:2:0
Bit depth : 8 bits
Scan type : Progressive
Compression mode : Lossy
Bits/(Pixel*Frame) : 0.210
Stream size : 267 MiB (89%)
Title : Video
Writing library : DivX 3013

Audio
ID : 1
Format : MPEG Audio
Format version : Version 1
Format profile : Layer 3
Codec ID : 55
Codec ID/Hint : MP3
Duration : 23mn 5s
Bit rate mode : Constant
Bit rate : 192 Kbps
Channel(s) : 2 channels
Sampling rate : 48.0 KHz
Compression mode : Lossy
Stream size : 31.7 MiB (11%)
Alignment : Split accross interleaves
Interleave, duration : 40 ms (1.00 video frame)
Interleave, preload duration : 500 ms
Title : Audio
General
Complete name : Little Einsteins\Raketa.spasaet.Jar-Pticu.DivX.DVDRip.528p.rus.avi
Format : AVI
Format/Info : Audio Video Interleave
File size : 524 MiB
Duration : 51mn 23s
Overall bit rate : 1 426 Kbps
Movie name : 2.spesial. Rocket's Firebird Rescue.2007
Writing application : VirtualDubModRus 1.5.10.2 (build 2542/release)
Writing library : VirtualDubMod build 2542/release

Video
ID : 0
Format : MPEG-4 Visual
Format profile : Advanced Simple@L5
Format settings, BVOP : Yes
Format settings, QPel : No
Format settings, GMC : No warppoints
Format settings, Matrix : Default (MPEG)
Codec ID : DX50
Codec ID/Hint : DivX 5
Duration : 51mn 23s
Bit rate : 1 224 Kbps
Width : 720 pixels
Height : 528 pixels
Display aspect ratio : 1.379
Frame rate : 23.976 fps
Color space : YUV
Chroma subsampling : 4:2:0
Bit depth : 8 bits
Scan type : Progressive
Compression mode : Lossy
Bits/(Pixel*Frame) : 0.134
Stream size : 450 MiB (86%)
Writing library : XviD 1.1.2 (UTC 2006-11-01)

Audio
ID : 1
Format : MPEG Audio
Format version : Version 1
Format profile : Layer 3
Mode : Joint stereo
Codec ID : 55
Codec ID/Hint : MP3
Duration : 51mn 23s
Bit rate mode : Constant
Bit rate : 192 Kbps
Channel(s) : 2 channels
Sampling rate : 48.0 KHz
Compression mode : Lossy
Stream size : 70.6 MiB (13%)
Alignment : Aligned on interleaves
Interleave, duration : 42 ms (1.00 video frame)
Interleave, preload duration : 504 ms

Правила, инструкции, FAQ!!!
Торрент  Добавлен [28 янв 2015, 00:13] Скачать торрент Магнет ссылка
Скачать торрент
11.38 КБ

Статус
Проверен 
 
Размер  2.06 ГБ
Приватный: Нет (DHT включён)
.torrent скачан  3
Как залить торрент? | Как скачать Torrent? | Как смотреть и слушать онлайн?  
Гость
 



Вернуться в Обучающие издания для детей

Кто сейчас на конференции

Сейчас этот форум просматривают: нет зарегистрированных пользователей и гости: 0