(Neo-Prog) [CD] Crayon Phase - Two Hundred Pages - 2019, FLAC (image+.cue), lossless


Статистика раздачи
Размер: 646.37 МБ | Добавлен: 09 ноя 2019, 12:40 | Скачали: 1
Сидеров: 11  [0 байт/сек]    Личеров: 3  [0 байт/сек]

Сообщение Гость » 09 ноя 2019, 12:40

Crayon Phase / Two Hundred Pages
Жанр: Neo-Prog
Носитель: CD
Страна-производитель диска (релиза): Germany
Издатель (лейбл): Progressive Promotion Records
Номер по каталогу: PPRCD074
Год издания: 2019
Страна исполнителя (группы): Germany
Аудиокодек: FLAC (*.flac)
Тип рипа: image+.cue
Продолжительность: 01:15:08
Источник: собственный рип
Наличие сканов в содержимом раздачи: да

01. Prologue [00:03:14]
02. Two hundred pages [00:11:38]
03. Turn of fortune [00:09:47]
04. Procession | Empty Grave [00:10:01]
05. Paralyzed [00:09:23]
06. The music box [00:08:42]
07. Retrospective [00:12:20]
08. Salvation [00:08:52]
09. 201 [00:01:07]
Released October 10, 2019
Raphael Gazal - Lead Vocals
Frank Wendel - Keyboards
Wolfgang Bähr - Guitars, Backing Vocals
Peter Damm - Bass
Arne Gröschel - Drums, Percussion
Код: Выделить всё
Exact Audio Copy V1.3 from 2. September 2016
Отчёт EAC об извлечении, выполненном 7. ноября 2019, 19:17
Crayon Phase / Two hundred pages
Дисковод: HL-DT-STDVDRAM GT70N   Adapter: 1  ID: 0
Режим чтения                 : Достоверность
Использование точного потока : Да
Отключение кэша аудио        : Да
Использование указателей C2  : Нет
Коррекция смещения при чтении                     : 103
Способность читать области Lead-in и Lead-out     : Нет
Заполнение пропущенных сэмплов тишиной            : Да
Удаление блоков с тишиной в начале и конце        : Нет
При вычислениях CRC использовались нулевые сэмплы : Да
Интерфейс                                         : Встроенный Win32-интерфейс для Win NT/2000
Выходной формат          : Пользовательский кодировщик
Выбранный битрейт        : 1024 kBit/s
Качество                 : Высокий
Добавление ID3-тега      : Нет
Утилита сжатия           : C:\Program Files (x86)\Exact Audio Copy\Flac\flac.exe
Дополнительные параметры : -V -8 -T "Date=%year%" -T "Genre=%genre%" %source%
TOC извлечённого CD
     Трек |   Старт  | Длительность | Начальный сектор | Конечный сектор
    ---------------------------------------------------------------------
       1  |  0:00.00 |    3:14.36   |           0      |      14585
       2  |  3:14.36 |   11:38.57   |       14586      |      66992
       3  | 14:53.18 |    9:47.63   |       66993      |     111080
       4  | 24:41.06 |   10:01.08   |      111081      |     156163
       5  | 34:42.14 |    9:23.23   |      156164      |     198411
       6  | 44:05.37 |    8:42.67   |      198412      |     237628
       7  | 52:48.29 |   12:20.40   |      237629      |     293168
       8  | 65:08.69 |    8:52.21   |      293169      |     333089
       9  | 74:01.15 |    1:07.03   |      333090      |     338117
Характеристики диапазона извлечения и сообщения об ошибках
Выбранный диапазон
     Имя файла C:\Users\Oleg1\Desktop\Crayon Phase - Two hundred pages.wav
     Пиковый уровень 98.4 %
     Скорость извлечения 5.2 X
     Качество диапазона 99.9 %
     CRC теста B76A9C0E
     CRC копии B76A9C0E
     Копирование... OK
Ошибок не произошло
AccurateRip: сводка
Трек  1  отсутствует в базе данных
Трек  2  отсутствует в базе данных
Трек  3  отсутствует в базе данных
Трек  4  отсутствует в базе данных
Трек  5  отсутствует в базе данных
Трек  6  отсутствует в базе данных
Трек  7  отсутствует в базе данных
Трек  8  отсутствует в базе данных
Трек  9  отсутствует в базе данных
Ни одного трека нет в базе AccurateRip
Конец отчёта
---- CUETools DB Plugin V2.1.6
[CTDB TOCID: 66GsCkIsiwOlV2OF_.C3NqOt3Rw-] found
Submit result: 66GsCkIsiwOlV2OF_.C3NqOt3Rw- has been confirmed
Track | CTDB Status
  1   | (1/1) Accurately ripped
  2   | (1/1) Accurately ripped
  3   | (1/1) Accurately ripped
  4   | (1/1) Accurately ripped
  5   | (1/1) Accurately ripped
  6   | (1/1) Accurately ripped
  7   | (1/1) Accurately ripped
  8   | (1/1) Accurately ripped
  9   | (1/1) Accurately ripped
==== Контрольная сумма отчёта D278662E578321E300BA511005FDA5DE0CB1B349098170A89CC38F17D4081F74 ====
Код: Выделить всё
-----------------------
DON'T MODIFY THIS FILE
-----------------------
PERFORMER: auCDtect Task Manager, ver. 1.6.0 RC1 build 1.6.0.1
Copyright (c) 2008-2010 y-soft. All rights reserved
[url=http://y-soft.org]http://y-soft.org[/url]
ANALYZER: auCDtect: CD records authenticity detector, version 0.8.2
Copyright (c) 2004 Oleg Berngardt. All rights reserved.
Copyright (c) 2004 Alexander Djourik. All rights reserved.
FILE: Crayon Phase - Two hundred pages.flac
  Size: 560638701 Hash: D2A70B5CA42913B617DB362973C32A87 Accuracy: -m0
  Conclusion: CDDA 100%
  Signature: BC5FD04D2B0DF211929366C75E7761C144C9EA2C
Код: Выделить всё
foobar2000 1.3.12 / Dynamic Range Meter 1.1.1
log date: 2019-11-07 20:38:16
--------------------------------------------------------------------------------
Analyzed: Crayon Phase / Two hundred pages
--------------------------------------------------------------------------------
DR         Peak         RMS     Duration Track
--------------------------------------------------------------------------------
DR10      -0.16 dB   -12.47 dB      3:14 01-Prologue
DR9       -0.19 dB   -10.67 dB     11:39 02-Two Hundred Pages
DR9       -0.18 dB   -10.53 dB      9:48 03-Turn Of Fortune
DR9       -0.19 dB   -10.65 dB     10:01 04-Procession | Empty Grave
DR9       -0.13 dB   -10.64 dB      9:23 05-Paralyzed
DR9       -0.18 dB   -11.00 dB      8:43 06-The Music Box
DR9       -0.25 dB   -11.11 dB     12:21 07-Retrospective
DR9       -0.21 dB   -11.58 dB      8:52 08-Salvation
DR8       -5.31 dB   -19.37 dB      1:07 09-201
--------------------------------------------------------------------------------
Number of tracks:  9
Official DR value: DR9
Samplerate:        44100 Hz
Channels:          2
Bits per sample:   16
Bitrate:           995 kbps
Codec:             FLAC
================================================================================
Правила, инструкции, FAQ!!!
Торрент  Добавлен [09 ноя 2019, 12:40] Скачать торрент Магнет ссылка
Скачать торрент
14.07 КБ

Статус
Проверен 
 
Размер  646.37 МБ
Приватный: Нет (DHT включён)
.torrent скачан  1
Как залить торрент? | Как скачать Torrent? | Как смотреть и слушать онлайн?  
Гость
 


Вернуться в Progressive & Art-Rock

Кто сейчас на конференции

Сейчас этот форум просматривают: нет зарегистрированных пользователей и гости: 0