(New Wave, Alternative Rock, Indie Rock) [CD] Центр (Василий Шумов) - Коллекция 5 CD - 1995-2001, FLAC (tracks+.cue), lossless


Статистика раздачи
Размер: 2.37 ГБ | Добавлен: 12 май 2019, 16:52 | Скачали: 1
Сидеров: 1  [0 байт/сек]    Личеров: 0  [0 байт/сек]

Сообщение Гость » 12 май 2019, 16:52

torrent "перезалит" 02 мая 2019 года. Изменен формат раздачи
Центр (Василий Шумов) / Коллекция 5 CD


Жанр: New Wave, Alternative Rock, Indie Rock
Носитель: CD
Страна-производитель (релиза): Россия
Год издания: 1995-2001
Издатель (лейбл): Moroz Records, Media Star
Страна исполнителя (группы): СССР, Россия, USA
Аудиокодек: FLAC (*.flac)
Тип рипа: tracks+.cue
Продолжительность: 4:12:30.947 (668 156 748 сэмплов)
Источник: собственный рип
Наличие сканов в содержимом раздачи: да
Центр / Центромания. Стадия Озарения

Жанр: Alternative Rock, Leftfield
Носитель: CD
Страна-производитель диска (релиза): Россия
Год издания: 1995 (1997)
Издатель (лейбл): Moroz Records
Номер по каталогу: dMR 73804 CD
Страна исполнителя (группы): Россия
Аудиокодек: FLAC (*.flac)
Тип рипа: tracks+.cue
Продолжительность: 34:10.173 (90 412 644 samples)
Источник: собственный рип
Наличие сканов в содержимом раздачи: да
Треклист:
01. Отплытие [0:01:42.64]
02. Инерция Тления [0:05:38.30]
03. Бред Первый [0:01:53.74]
04. Пятна Зловещих Узоров [0:03:39.19]
05. Бред Второй [0:01:28.00]
06. Перламутровая Явь [0:03:43.35]
07. Бред Третий [0:01:10.52]
08. Синий Запах Снега [0:03:45.26]
09. Бред Четвёртый [0:00:45.32]
10. Фиолетовый Дым [0:04:38.12]
11. Бред Пятый [0:01:05.66]
12. Горькое Солнце [0:03:43.65]
13. Забытье [0:00:54.63]
Код: Выделить всё
Exact Audio Copy V1.3 from 2. September 2016
EAC extraction logfile from 29. April 2019, 15:02
Центр / Центромания. Стадия Озарения
Used drive  : MATSHITADVD-RAM UJ8B0AW   Adapter: 1  ID: 0
Read mode               : Secure
Utilize accurate stream : Yes
Defeat audio cache      : Yes
Make use of C2 pointers : No
Read offset correction                      : 102
Overread into Lead-In and Lead-Out          : No
Fill up missing offset samples with silence : Yes
Delete leading and trailing silent blocks   : No
Null samples used in CRC calculations       : Yes
Used interface                              : Native Win32 interface for Win NT & 2000
Gap handling                                : Appended to previous track
Used output format              : User Defined Encoder
Selected bitrate                : 1024 kBit/s
Quality                         : High
Add ID3 tag                     : No
Command line compressor         : C:\Program Files (x86)\Exact Audio Copy\FLAC\FLAC.EXE
Additional command line options : -V -8 -T "Genre=%genre%" -T "Artist=%artist%" -T "Title=%title%" -T "Album=%albumtitle%" -T "Date=%year%" -T "Tracknumber=%tracknr%" -T "Comment=%comment%" %source%
TOC of the extracted CD
     Track |   Start  |  Length  | Start sector | End sector
    ---------------------------------------------------------
        1  |  0:00.00 |  1:42.64 |         0    |     7713
        2  |  1:42.64 |  5:38.30 |      7714    |    33093
        3  |  7:21.19 |  1:53.74 |     33094    |    41642
        4  |  9:15.18 |  3:39.19 |     41643    |    58086
        5  | 12:54.37 |  1:28.00 |     58087    |    64686
        6  | 14:22.37 |  3:43.35 |     64687    |    81446
        7  | 18:05.72 |  1:10.52 |     81447    |    86748
        8  | 19:16.49 |  3:45.26 |     86749    |   103649
        9  | 23:02.00 |  0:45.32 |    103650    |   107056
       10  | 23:47.32 |  4:38.12 |    107057    |   127918
       11  | 28:25.44 |  1:05.66 |    127919    |   132859
       12  | 29:31.35 |  3:43.65 |    132860    |   149649
       13  | 33:15.25 |  0:54.63 |    149650    |   153762
Track  1
     Filename D:\Music\My torrents\Центр\[1995] Центромания. Стадия Озарения\01. Центр - Отплытие.wav
     Pre-gap length  0:00:02.00
     Peak level 100.0 %
     Extraction speed 0.9 X
     Track quality 100.0 %
     Test CRC 5979E1A1
     Copy CRC 5979E1A1
     Track not present in AccurateRip database
     Copy OK
Track  2
     Filename D:\Music\My torrents\Центр\[1995] Центромания. Стадия Озарения\02. Центр - Инерция Тления.wav
     Peak level 76.3 %
     Extraction speed 1.3 X
     Track quality 100.0 %
     Test CRC 0BB62500
     Copy CRC 0BB62500
     Track not present in AccurateRip database
     Copy OK
Track  3
     Filename D:\Music\My torrents\Центр\[1995] Центромания. Стадия Озарения\03. Центр - Бред Первый.wav
     Peak level 52.6 %
     Extraction speed 1.2 X
     Track quality 100.0 %
     Test CRC 7006D818
     Copy CRC 7006D818
     Track not present in AccurateRip database
     Copy OK
Track  4
     Filename D:\Music\My torrents\Центр\[1995] Центромания. Стадия Озарения\04. Центр - Пятна Зловещих Узоров.wav
     Peak level 74.9 %
     Extraction speed 1.4 X
     Track quality 100.0 %
     Test CRC AE79E879
     Copy CRC AE79E879
     Track not present in AccurateRip database
     Copy OK
Track  5
     Filename D:\Music\My torrents\Центр\[1995] Центромания. Стадия Озарения\05. Центр - Бред Второй.wav
     Peak level 53.6 %
     Extraction speed 1.2 X
     Track quality 100.0 %
     Test CRC BE9EBFFA
     Copy CRC BE9EBFFA
     Track not present in AccurateRip database
     Copy OK
Track  6
     Filename D:\Music\My torrents\Центр\[1995] Центромания. Стадия Озарения\06. Центр - Перламутровая Явь.wav
     Peak level 71.9 %
     Extraction speed 1.6 X
     Track quality 100.0 %
     Test CRC 9F439A05
     Copy CRC 9F439A05
     Track not present in AccurateRip database
     Copy OK
Track  7
     Filename D:\Music\My torrents\Центр\[1995] Центромания. Стадия Озарения\07. Центр - Бред Третий.wav
     Peak level 64.9 %
     Extraction speed 0.9 X
     Track quality 99.8 %
     Test CRC D92264D5
     Copy CRC D92264D5
     Track not present in AccurateRip database
     Copy OK
Track  8
     Filename D:\Music\My torrents\Центр\[1995] Центромания. Стадия Озарения\08. Центр - Синий Запах Снега.wav
     Peak level 70.2 %
     Extraction speed 1.7 X
     Track quality 100.0 %
     Test CRC DDD1B835
     Copy CRC DDD1B835
     Track not present in AccurateRip database
     Copy OK
Track  9
     Filename D:\Music\My torrents\Центр\[1995] Центромания. Стадия Озарения\09. Центр - Бред Четвёртый.wav
     Peak level 78.2 %
     Extraction speed 1.1 X
     Track quality 100.0 %
     Test CRC A3A51213
     Copy CRC A3A51213
     Track not present in AccurateRip database
     Copy OK
Track 10
     Filename D:\Music\My torrents\Центр\[1995] Центромания. Стадия Озарения\10. Центр - Фиолетовый Дым.wav
     Peak level 75.9 %
     Extraction speed 1.9 X
     Track quality 100.0 %
     Test CRC 1818BA12
     Copy CRC 1818BA12
     Track not present in AccurateRip database
     Copy OK
Track 11
     Filename D:\Music\My torrents\Центр\[1995] Центромания. Стадия Озарения\11. Центр - Бред Пятый.wav
     Peak level 71.8 %
     Extraction speed 1.4 X
     Track quality 100.0 %
     Test CRC 1C3C147F
     Copy CRC 1C3C147F
     Track not present in AccurateRip database
     Copy OK
Track 12
     Filename D:\Music\My torrents\Центр\[1995] Центромания. Стадия Озарения\12. Центр - Горькое Солнце.wav
     Peak level 74.7 %
     Extraction speed 1.9 X
     Track quality 100.0 %
     Test CRC 62B36676
     Copy CRC 62B36676
     Track not present in AccurateRip database
     Copy OK
Track 13
     Filename D:\Music\My torrents\Центр\[1995] Центромания. Стадия Озарения\13. Центр - Забытье.wav
     Peak level 76.1 %
     Extraction speed 1.3 X
     Track quality 100.0 %
     Test CRC 016A43AF
     Copy CRC 016A43AF
     Track not present in AccurateRip database
     Copy OK
None of the tracks are present in the AccurateRip database
No errors occurred
End of status report
---- CUETools DB Plugin V2.1.6
[CTDB TOCID: YrJt30V7kCD5iGFHEeXo0vUx.jI-] found
Submit result: YrJt30V7kCD5iGFHEeXo0vUx.jI- has been confirmed
Track | CTDB Status
  1   | (2/2) Accurately ripped
  2   | (2/2) Accurately ripped
  3   | (2/2) Accurately ripped
  4   | (2/2) Accurately ripped
  5   | (2/2) Accurately ripped
  6   | (2/2) Accurately ripped
  7   | (2/2) Accurately ripped
  8   | (2/2) Accurately ripped
  9   | (2/2) Accurately ripped
 10   | (2/2) Accurately ripped
 11   | (2/2) Accurately ripped
 12   | (2/2) Accurately ripped
 13   | (2/2) Accurately ripped
==== Log checksum A78B39767BD0ACF588BB0A7F688A633F988AE081C60E4CF504D1F533248F9F07 ====
Код: Выделить всё
REM GENRE "Alternative Rock, Leftfield"
REM DATE 1995
REM DISCID C308020D
REM COMMENT "ExactAudioCopy v1.3"
PERFORMER "Центр"
TITLE "Центромания. Стадия Озарения"
REM COMPOSER "Василий Шумов, Евгений Головин"
FILE "01. Центр - Отплытие.flac" WAVE
  TRACK 01 AUDIO
    TITLE "Отплытие"
    PERFORMER "Центр"
    REM COMPOSER "Василий Шумов, Евгений Головин"
    INDEX 01 00:00:00
FILE "02. Центр - Инерция Тления.flac" WAVE
  TRACK 02 AUDIO
    TITLE "Инерция Тления"
    PERFORMER "Центр"
    REM COMPOSER "Василий Шумов, Евгений Головин"
    INDEX 01 00:00:00
FILE "03. Центр - Бред Первый.flac" WAVE
  TRACK 03 AUDIO
    TITLE "Бред Первый"
    PERFORMER "Центр"
    REM COMPOSER "Василий Шумов, Евгений Головин"
    INDEX 01 00:00:00
FILE "04. Центр - Пятна Зловещих Узоров.flac" WAVE
  TRACK 04 AUDIO
    TITLE "Пятна Зловещих Узоров"
    PERFORMER "Центр"
    REM COMPOSER "Василий Шумов, Евгений Головин"
    INDEX 01 00:00:00
FILE "05. Центр - Бред Второй.flac" WAVE
  TRACK 05 AUDIO
    TITLE "Бред Второй"
    PERFORMER "Центр"
    REM COMPOSER "Василий Шумов, Евгений Головин"
    INDEX 01 00:00:00
FILE "06. Центр - Перламутровая Явь.flac" WAVE
  TRACK 06 AUDIO
    TITLE "Перламутровая Явь"
    PERFORMER "Центр"
    REM COMPOSER "Василий Шумов, Евгений Головин"
    INDEX 01 00:00:00
FILE "07. Центр - Бред Третий.flac" WAVE
  TRACK 07 AUDIO
    TITLE "Бред Третий"
    PERFORMER "Центр"
    REM COMPOSER "Василий Шумов, Евгений Головин"
    INDEX 01 00:00:00
FILE "08. Центр - Синий Запах Снега.flac" WAVE
  TRACK 08 AUDIO
    TITLE "Синий Запах Снега"
    PERFORMER "Центр"
    REM COMPOSER "Василий Шумов, Евгений Головин"
    INDEX 01 00:00:00
FILE "09. Центр - Бред Четвёртый.flac" WAVE
  TRACK 09 AUDIO
    TITLE "Бред Четвёртый"
    PERFORMER "Центр"
    REM COMPOSER "Василий Шумов, Евгений Головин"
    INDEX 01 00:00:00
FILE "10. Центр - Фиолетовый Дым.flac" WAVE
  TRACK 10 AUDIO
    TITLE "Фиолетовый Дым"
    PERFORMER "Центр"
    REM COMPOSER "Василий Шумов, Евгений Головин"
    INDEX 01 00:00:00
FILE "11. Центр - Бред Пятый.flac" WAVE
  TRACK 11 AUDIO
    TITLE "Бред Пятый"
    PERFORMER "Центр"
    REM COMPOSER "Василий Шумов, Евгений Головин"
    INDEX 01 00:00:00
FILE "12. Центр - Горькое Солнце.flac" WAVE
  TRACK 12 AUDIO
    TITLE "Горькое Солнце"
    PERFORMER "Центр"
    REM COMPOSER "Василий Шумов, Евгений Головин"
    INDEX 01 00:00:00
FILE "13. Центр - Забытье.flac" WAVE
  TRACK 13 AUDIO
    TITLE "Забытье"
    PERFORMER "Центр"
    REM COMPOSER "Василий Шумов, Евгений Головин"
    INDEX 01 00:00:00
Код: Выделить всё
AUDIOCHECKER v2.0 beta (build 457) - by Dester - opdester@freemail.hu
~~~~~~~~~~~~~~~~~~~~~~~~~~~~~~~~~~
-=== DO NOT EDIT THIS FILE! ===-
Path: ...\[1995] Центромания. Стадия Озарения
01 -=- 01. Центр - Отплытие.flac -=- CDDA (100%)
02 -=- 02. Центр - Инерция Тления.flac -=- CDDA (99%)
03 -=- 03. Центр - Бред Первый.flac -=- CDDA (100%)
04 -=- 04. Центр - Пятна Зловещих Узоров.flac -=- CDDA (100%)
05 -=- 05. Центр - Бред Второй.flac -=- CDDA (100%)
06 -=- 06. Центр - Перламутровая Явь.flac -=- CDDA (99%)
07 -=- 07. Центр - Бред Третий.flac -=- CDDA (94%)
08 -=- 08. Центр - Синий Запах Снега.flac -=- CDDA (100%)
09 -=- 09. Центр - Бред Четвёртый.flac -=- CDDA (100%)
10 -=- 10. Центр - Фиолетовый Дым.flac -=- CDDA (100%)
11 -=- 11. Центр - Бред Пятый.flac -=- CDDA (100%)
12 -=- 12. Центр - Горькое Солнце.flac -=- CDDA (100%)
13 -=- 13. Центр - Забытье.flac -=- CDDA (100%)
Summary 99,38% CDDA
7365460
Доп. информация: foobar2000 1.3.10 / Замер динамического диапазона (DR) 1.1.1
Дата отчёта: 2019-04-29 16:24:57
--------------------------------------------------------------------------------
Анализ: Центр / Центромания. Стадия Озарения
--------------------------------------------------------------------------------
DR Пики RMS Продолжительность трека
--------------------------------------------------------------------------------
DR13 0.00 дБ -21.30 дБ 1:43 01-Отплытие
DR11 -2.34 дБ -15.40 дБ 5:38 02-Инерция Тления
DR9 -5.58 дБ -15.82 дБ 1:54 03-Бред Первый
DR10 -2.50 дБ -14.12 дБ 3:39 04-Пятна Зловещих Узоров
DR10 -5.41 дБ -17.59 дБ 1:28 05-Бред Второй
DR11 -2.86 дБ -14.92 дБ 3:43 06-Перламутровая Явь
DR12 -3.75 дБ -17.10 дБ 1:11 07-Бред Третий
DR10 -3.07 дБ -13.86 дБ 3:45 08-Синий Запах Снега
DR8 -2.13 дБ -11.61 дБ 0:45 09-Бред Четвёртый
DR10 -2.39 дБ -13.78 дБ 4:38 10-Фиолетовый Дым
DR10 -2.87 дБ -15.44 дБ 1:06 11-Бред Пятый
DR9 -2.52 дБ -12.38 дБ 3:44 12-Горькое Солнце
DR17 -2.36 дБ -22.84 дБ 0:55 13-Забытье
--------------------------------------------------------------------------------
Количество треков: 13
Реальные значения DR: DR11
Частота: 44100 Гц
Каналов: 2
Разрядность: 16
Битрейт: 654 кбит/с
Кодек: FLAC
================================================================================
Центр / Центромания. Стадия Первая

#777Жанр: Alternative Rock, Indie Rock
Носитель: CD
Страна-производитель диска (релиза): Россия
Год издания: 1996 (1997)
Издатель (лейбл): Moroz Records
Номер по каталогу: dMR 73904 CD
Страна исполнителя (группы): Россия
Аудиокодек: FLAC (*.flac)
Тип рипа: tracks+.cue
Продолжительность: 41:08.573 (108 864 084 samples)
Источник: собственный рип
Наличие сканов в содержимом раздачи: да
Треклист:
01. Стюардесса Летних Линий [0:03:16.06]
02. Новая Земля [0:03:49.41]
03. Мальчик В Тенисных Туфлях [0:04:29.59]
04. Танго Любви [0:03:52.16]
05. Звёзды Всегда Хороши, Особенно Ночью [0:04:40.40]
06. Я Всё Умею [0:04:20.24]
07. Морелла [0:03:01.01]
08. Ревность [0:03:40.44]
09. Романтический Вечер [0:02:59.39]
10. Куклы Мадам Манделипп [0:03:37.26]
11. Девушки Любят Лётчиков [0:03:21.47]
Код: Выделить всё
Exact Audio Copy V1.3 from 2. September 2016
EAC extraction logfile from 30. April 2019, 9:30
Центр / Центромания. Стадия Первая
Used drive  : MATSHITADVD-RAM UJ8B0AW   Adapter: 1  ID: 0
Read mode               : Secure
Utilize accurate stream : Yes
Defeat audio cache      : Yes
Make use of C2 pointers : No
Read offset correction                      : 102
Overread into Lead-In and Lead-Out          : No
Fill up missing offset samples with silence : Yes
Delete leading and trailing silent blocks   : No
Null samples used in CRC calculations       : Yes
Used interface                              : Native Win32 interface for Win NT & 2000
Gap handling                                : Appended to previous track
Used output format              : User Defined Encoder
Selected bitrate                : 1024 kBit/s
Quality                         : High
Add ID3 tag                     : No
Command line compressor         : C:\Program Files (x86)\Exact Audio Copy\FLAC\FLAC.EXE
Additional command line options : -V -8 -T "Genre=%genre%" -T "Artist=%artist%" -T "Title=%title%" -T "Album=%albumtitle%" -T "Date=%year%" -T "Tracknumber=%tracknr%" -T "Comment=%comment%" %source%
TOC of the extracted CD
     Track |   Start  |  Length  | Start sector | End sector
    ---------------------------------------------------------
        1  |  0:00.00 |  3:16.06 |         0    |    14705
        2  |  3:16.06 |  3:49.41 |     14706    |    31921
        3  |  7:05.47 |  4:29.59 |     31922    |    52155
        4  | 11:35.31 |  3:52.16 |     52156    |    69571
        5  | 15:27.47 |  4:40.40 |     69572    |    90611
        6  | 20:08.12 |  4:20.24 |     90612    |   110135
        7  | 24:28.36 |  3:01.01 |    110136    |   123711
        8  | 27:29.37 |  3:40.44 |    123712    |   140255
        9  | 31:10.06 |  2:59.39 |    140256    |   153719
       10  | 34:09.45 |  3:37.26 |    153720    |   170020
       11  | 37:46.71 |  3:21.47 |    170021    |   185142
Track  1
     Filename D:\Music\My torrents\Центр\[1996] Центромания. Стадия Первая\01. Центр - Стюардесса Летних Линий.wav
     Pre-gap length  0:00:02.00
     Peak level 73.7 %
     Extraction speed 1.1 X
     Track quality 100.0 %
     Test CRC 6C6A0998
     Copy CRC 6C6A0998
     Track not present in AccurateRip database
     Copy OK
Track  2
     Filename D:\Music\My torrents\Центр\[1996] Центромания. Стадия Первая\02. Центр - Новая Земля.wav
     Peak level 62.7 %
     Extraction speed 1.3 X
     Track quality 100.0 %
     Test CRC 7970F944
     Copy CRC 7970F944
     Track not present in AccurateRip database
     Copy OK
Track  3
     Filename D:\Music\My torrents\Центр\[1996] Центромания. Стадия Первая\03. Центр - Мальчик В Тенисных Туфлях.wav
     Peak level 69.3 %
     Extraction speed 1.4 X
     Track quality 100.0 %
     Test CRC 4F010B90
     Copy CRC 4F010B90
     Track not present in AccurateRip database
     Copy OK
Track  4
     Filename D:\Music\My torrents\Центр\[1996] Центромания. Стадия Первая\04. Центр - Танго Любви.wav
     Peak level 57.9 %
     Extraction speed 1.5 X
     Track quality 100.0 %
     Test CRC 9117EE08
     Copy CRC 9117EE08
     Track not present in AccurateRip database
     Copy OK
Track  5
     Filename D:\Music\My torrents\Центр\[1996] Центромания. Стадия Первая\05. Центр - Звёзды Всегда Хороши, Особенно Ночью.wav
     Peak level 55.6 %
     Extraction speed 1.5 X
     Track quality 99.9 %
     Test CRC B40991B0
     Copy CRC B40991B0
     Track not present in AccurateRip database
     Copy OK
Track  6
     Filename D:\Music\My torrents\Центр\[1996] Центромания. Стадия Первая\06. Центр - Я Всё Умею.wav
     Peak level 60.4 %
     Extraction speed 1.8 X
     Track quality 100.0 %
     Test CRC 6F34AF9E
     Copy CRC 6F34AF9E
     Track not present in AccurateRip database
     Copy OK
Track  7
     Filename D:\Music\My torrents\Центр\[1996] Центромания. Стадия Первая\07. Центр - Морелла.wav
     Peak level 70.8 %
     Extraction speed 1.7 X
     Track quality 100.0 %
     Test CRC CA477A45
     Copy CRC CA477A45
     Track not present in AccurateRip database
     Copy OK
Track  8
     Filename D:\Music\My torrents\Центр\[1996] Центромания. Стадия Первая\08. Центр - Ревность.wav
     Peak level 68.0 %
     Extraction speed 1.8 X
     Track quality 100.0 %
     Test CRC 2D16B757
     Copy CRC 2D16B757
     Track not present in AccurateRip database
     Copy OK
Track  9
     Filename D:\Music\My torrents\Центр\[1996] Центромания. Стадия Первая\09. Центр - Романтический Вечер.wav
     Peak level 69.8 %
     Extraction speed 1.9 X
     Track quality 100.0 %
     Test CRC 5B01F74C
     Copy CRC 5B01F74C
     Track not present in AccurateRip database
     Copy OK
Track 10
     Filename D:\Music\My torrents\Центр\[1996] Центромания. Стадия Первая\10. Центр - Куклы Мадам Манделипп.wav
     Peak level 79.4 %
     Extraction speed 2.0 X
     Track quality 100.0 %
     Test CRC 2D95FA29
     Copy CRC 2D95FA29
     Track not present in AccurateRip database
     Copy OK
Track 11
     Filename D:\Music\My torrents\Центр\[1996] Центромания. Стадия Первая\11. Центр - Девушки Любят Лётчиков.wav
     Peak level 70.4 %
     Extraction speed 2.0 X
     Track quality 100.0 %
     Test CRC 09503733
     Copy CRC 09503733
     Track not present in AccurateRip database
     Copy OK
None of the tracks are present in the AccurateRip database
No errors occurred
End of status report
---- CUETools DB Plugin V2.1.6
[CTDB TOCID: RmfjMjzL.PKLMD0_57TUfvPxSG0-] found
Submit result: RmfjMjzL.PKLMD0_57TUfvPxSG0- has been confirmed
Track | CTDB Status
  1   | (3/3) Accurately ripped
  2   | (3/3) Accurately ripped
  3   | (3/3) Accurately ripped
  4   | (3/3) Accurately ripped
  5   | (3/3) Accurately ripped
  6   | (3/3) Accurately ripped
  7   | (3/3) Accurately ripped
  8   | (3/3) Accurately ripped
  9   | (3/3) Accurately ripped
 10   | (3/3) Accurately ripped
 11   | (3/3) Accurately ripped
==== Log checksum 78A024AD13B5CB2C62B2CFEE25118B21E88B8A22A9BD52B67FDF925C49367A25 ====
Код: Выделить всё
REM GENRE "Alternative Rock, Indie Rock"
REM DATE 1996
REM DISCID 9409A40B
REM COMMENT "ExactAudioCopy v1.3"
PERFORMER "Центр"
TITLE "Центромания. Стадия Первая"
REM COMPOSER "Василий Шумов, Евгений Головин"
FILE "01. Центр - Стюардесса Летних Линий.flac" WAVE
  TRACK 01 AUDIO
    TITLE "Стюардесса Летних Линий"
    PERFORMER "Центр"
    REM COMPOSER "Василий Шумов, Евгений Головин"
    INDEX 01 00:00:00
FILE "02. Центр - Новая Земля.flac" WAVE
  TRACK 02 AUDIO
    TITLE "Новая Земля"
    PERFORMER "Центр"
    REM COMPOSER "Василий Шумов, Евгений Головин"
    INDEX 01 00:00:00
FILE "03. Центр - Мальчик В Тенисных Туфлях.flac" WAVE
  TRACK 03 AUDIO
    TITLE "Мальчик В Тенисных Туфлях"
    PERFORMER "Центр"
    REM COMPOSER "Василий Шумов, Евгений Головин"
    INDEX 01 00:00:00
FILE "04. Центр - Танго Любви.flac" WAVE
  TRACK 04 AUDIO
    TITLE "Танго Любви"
    PERFORMER "Центр"
    REM COMPOSER "Василий Шумов, Евгений Головин"
    INDEX 01 00:00:00
FILE "05. Центр - Звёзды Всегда Хороши, Особенно Ночью.flac" WAVE
  TRACK 05 AUDIO
    TITLE "Звёзды Всегда Хороши, Особенно Ночью"
    PERFORMER "Центр"
    REM COMPOSER "Василий Шумов, Евгений Головин"
    INDEX 01 00:00:00
FILE "06. Центр - Я Всё Умею.flac" WAVE
  TRACK 06 AUDIO
    TITLE "Я Всё Умею"
    PERFORMER "Центр"
    REM COMPOSER "Василий Шумов, Евгений Головин"
    INDEX 01 00:00:00
FILE "07. Центр - Морелла.flac" WAVE
  TRACK 07 AUDIO
    TITLE "Морелла"
    PERFORMER "Центр"
    REM COMPOSER "Василий Шумов, Евгений Головин"
    INDEX 01 00:00:00
FILE "08. Центр - Ревность.flac" WAVE
  TRACK 08 AUDIO
    TITLE "Ревность"
    PERFORMER "Центр"
    REM COMPOSER "Василий Шумов, Евгений Головин"
    INDEX 01 00:00:00
FILE "09. Центр - Романтический Вечер.flac" WAVE
  TRACK 09 AUDIO
    TITLE "Романтический Вечер"
    PERFORMER "Центр"
    REM COMPOSER "Василий Шумов, Евгений Головин"
    INDEX 01 00:00:00
FILE "10. Центр - Куклы Мадам Манделипп.flac" WAVE
  TRACK 10 AUDIO
    TITLE "Куклы Мадам Манделипп"
    PERFORMER "Центр"
    REM COMPOSER "Василий Шумов, Евгений Головин"
    INDEX 01 00:00:00
FILE "11. Центр - Девушки Любят Лётчиков.flac" WAVE
  TRACK 11 AUDIO
    TITLE "Девушки Любят Лётчиков"
    PERFORMER "Центр"
    REM COMPOSER "Василий Шумов, Евгений Головин"
    INDEX 01 00:00:00
Код: Выделить всё
AUDIOCHECKER v2.0 beta (build 457) - by Dester - opdester@freemail.hu
~~~~~~~~~~~~~~~~~~~~~~~~~~~~~~~~~~
-=== DO NOT EDIT THIS FILE! ===-
Path: ...\[1996] Центромания. Стадия Первая
01 -=- 01. Центр - Стюардесса Летних Линий.flac -=- CDDA (100%)
02 -=- 02. Центр - Новая Земля.flac -=- CDDA (100%)
03 -=- 03. Центр - Мальчик В Тенисных Туфлях.flac -=- CDDA (100%)
04 -=- 04. Центр - Танго Любви.flac -=- CDDA (100%)
05 -=- 05. Центр - Звёзды Всегда Хороши, Особенно Ночью.flac -=- CDDA (100%)
06 -=- 06. Центр - Я Всё Умею.flac -=- CDDA (100%)
07 -=- 07. Центр - Морелла.flac -=- CDDA (100%)
08 -=- 08. Центр - Ревность.flac -=- CDDA (100%)
09 -=- 09. Центр - Романтический Вечер.flac -=- CDDA (100%)
10 -=- 10. Центр - Куклы Мадам Манделипп.flac -=- CDDA (100%)
11 -=- 11. Центр - Девушки Любят Лётчиков.flac -=- CDDA (100%)
Summary 100,00% CDDA
221640564
foobar2000 1.3.10 / Замер динамического диапазона (DR) 1.1.1
Дата отчёта: 2019-05-02 11:17:14
--------------------------------------------------------------------------------
Анализ: Центр / Центромания. Стадия Первая
--------------------------------------------------------------------------------
DR Пики RMS Продолжительность трека
--------------------------------------------------------------------------------
DR10 -2.65 дБ -14.26 дБ 3:16 01-Стюардесса Летних Линий
DR10 -4.05 дБ -15.55 дБ 3:50 02-Новая Земля
DR10 -3.18 дБ -13.97 дБ 4:30 03-Мальчик В Тенисных Туфлях
DR11 -4.75 дБ -17.42 дБ 3:52 04-Танго Любви
DR11 -5.10 дБ -16.88 дБ 4:41 05-Звёзды Всегда Хороши, Особенно Ночью
DR12 -4.38 дБ -17.32 дБ 4:20 06-Я Всё Умею
DR11 -3.00 дБ -14.83 дБ 3:01 07-Морелла
DR11 -3.34 дБ -15.27 дБ 3:41 08-Ревность
DR10 -3.11 дБ -14.11 дБ 3:00 09-Романтический Вечер
DR11 -2.00 дБ -15.06 дБ 3:37 10-Куклы Мадам Манделипп
DR11 -3.05 дБ -14.81 дБ 3:22 11-Девушки Любят Лётчиков
--------------------------------------------------------------------------------
Количество треков: 11
Реальные значения DR: DR11
Частота: 44100 Гц
Каналов: 2
Разрядность: 16
Битрейт: 910 кбит/с
Кодек: FLAC
================================================================================
Центр / Смутное Пятно Неизвестно Чего

#777Жанр: Alternative Rock, Indie Rock
Носитель: CD
Страна-производитель диска (релиза): Россия
Год издания: 1997
Издатель (лейбл): Moroz Records
Номер по каталогу: dMR 74004 CD
Страна исполнителя (группы): Россия
Аудиокодек: FLAC (*.flac)
Тип рипа: tracks+.cue
Продолжительность: 44:59.987 (119 069 412 samples)
Источник: собственный рип
Наличие сканов в содержимом раздачи: да
Треклист:
01. Натаскивание [0:00:34.30]
02. Смутное Пятно Неизвестно Чего [0:03:47.00]
03. Иметь [0:04:51.18]
04. Цивилизация Ларьков [0:03:43.46]
05. Урок Физики [0:00:17.51]
06. Визитейшен [0:04:35.58]
07. Гимн Драке [0:04:26.25]
08. Топот Диких Коней [0:04:56.51]
09. Процесс [0:00:16.31]
10. Пасека [0:04:18.38]
11. На Своих Двоих [0:04:43.53]
12. Красная Фея [0:03:34.40]
13. Аутотренинг [0:00:17.11]
14. Девушка [0:04:36.72]
Код: Выделить всё
Exact Audio Copy V1.3 from 2. September 2016
EAC extraction logfile from 29. April 2019, 16:19
Центр / Смутное Пятно Неизвестно Чего
Used drive  : MATSHITADVD-RAM UJ8B0AW   Adapter: 1  ID: 0
Read mode               : Secure
Utilize accurate stream : Yes
Defeat audio cache      : Yes
Make use of C2 pointers : No
Read offset correction                      : 102
Overread into Lead-In and Lead-Out          : No
Fill up missing offset samples with silence : Yes
Delete leading and trailing silent blocks   : No
Null samples used in CRC calculations       : Yes
Used interface                              : Native Win32 interface for Win NT & 2000
Gap handling                                : Appended to previous track
Used output format              : User Defined Encoder
Selected bitrate                : 1024 kBit/s
Quality                         : High
Add ID3 tag                     : No
Command line compressor         : C:\Program Files (x86)\Exact Audio Copy\FLAC\FLAC.EXE
Additional command line options : -V -8 -T "Genre=%genre%" -T "Artist=%artist%" -T "Title=%title%" -T "Album=%albumtitle%" -T "Date=%year%" -T "Tracknumber=%tracknr%" -T "Comment=%comment%" %source%
TOC of the extracted CD
     Track |   Start  |  Length  | Start sector | End sector
    ---------------------------------------------------------
        1  |  0:00.00 |  0:34.30 |         0    |     2579
        2  |  0:34.30 |  3:47.00 |      2580    |    19604
        3  |  4:21.30 |  4:51.18 |     19605    |    41447
        4  |  9:12.48 |  3:43.46 |     41448    |    58218
        5  | 12:56.19 |  0:17.51 |     58219    |    59544
        6  | 13:13.70 |  4:35.58 |     59545    |    80227
        7  | 17:49.53 |  4:26.25 |     80228    |   100202
        8  | 22:16.03 |  4:56.51 |    100203    |   122453
        9  | 27:12.54 |  0:16.31 |    122454    |   123684
       10  | 27:29.10 |  4:18.38 |    123685    |   143072
       11  | 31:47.48 |  4:43.53 |    143073    |   164350
       12  | 36:31.26 |  3:34.40 |    164351    |   180440
       13  | 40:05.66 |  0:17.11 |    180441    |   181726
       14  | 40:23.02 |  4:36.72 |    181727    |   202498
Track  1
     Filename D:\Music\My torrents\Центр\[1997] Смутное Пятно Неизвестно Чего\01. Центр - Натаскивание.wav
     Pre-gap length  0:00:02.00
     Peak level 82.5 %
     Extraction speed 0.6 X
     Track quality 100.0 %
     Test CRC DF4DAF8A
     Copy CRC DF4DAF8A
     Track not present in AccurateRip database
     Copy OK
Track  2
     Filename D:\Music\My torrents\Центр\[1997] Смутное Пятно Неизвестно Чего\02. Центр - Смутное Пятно Неизвестно Чего.wav
     Peak level 96.9 %
     Extraction speed 1.1 X
     Track quality 100.0 %
     Test CRC 0D638F05
     Copy CRC 0D638F05
     Track not present in AccurateRip database
     Copy OK
Track  3
     Filename D:\Music\My torrents\Центр\[1997] Смутное Пятно Неизвестно Чего\03. Центр - Иметь.wav
     Peak level 86.1 %
     Extraction speed 1.3 X
     Track quality 100.0 %
     Test CRC F2B404EB
     Copy CRC F2B404EB
     Track not present in AccurateRip database
     Copy OK
Track  4
     Filename D:\Music\My torrents\Центр\[1997] Смутное Пятно Неизвестно Чего\04. Центр - Цивилизация Ларьков.wav
     Peak level 91.0 %
     Extraction speed 1.4 X
     Track quality 100.0 %
     Test CRC DFA42B30
     Copy CRC DFA42B30
     Track not present in AccurateRip database
     Copy OK
Track  5
     Filename D:\Music\My torrents\Центр\[1997] Смутное Пятно Неизвестно Чего\05. Центр - Урок Физики.wav
     Peak level 83.8 %
     Extraction speed 0.5 X
     Track quality 100.0 %
     Test CRC 5ECF505E
     Copy CRC 5ECF505E
     Track not present in AccurateRip database
     Copy OK
Track  6
     Filename D:\Music\My torrents\Центр\[1997] Смутное Пятно Неизвестно Чего\06. Центр - Визитейшен.wav
     Peak level 100.0 %
     Extraction speed 1.6 X
     Track quality 100.0 %
     Test CRC D44EEC3C
     Copy CRC D44EEC3C
     Track not present in AccurateRip database
     Copy OK
Track  7
     Filename D:\Music\My torrents\Центр\[1997] Смутное Пятно Неизвестно Чего\07. Центр - Гимн Драке.wav
     Peak level 96.9 %
     Extraction speed 1.7 X
     Track quality 100.0 %
     Test CRC ACAD9A63
     Copy CRC ACAD9A63
     Track not present in AccurateRip database
     Copy OK
Track  8
     Filename D:\Music\My torrents\Центр\[1997] Смутное Пятно Неизвестно Чего\08. Центр - Топот Диких Коней.wav
     Peak level 79.6 %
     Extraction speed 1.8 X
     Track quality 100.0 %
     Test CRC F19FB0BF
     Copy CRC F19FB0BF
     Track not present in AccurateRip database
     Copy OK
Track  9
     Filename D:\Music\My torrents\Центр\[1997] Смутное Пятно Неизвестно Чего\09. Центр - Процесс.wav
     Peak level 75.2 %
     Extraction speed 0.6 X
     Track quality 100.0 %
     Test CRC 0D178714
     Copy CRC 0D178714
     Track not present in AccurateRip database
     Copy OK
Track 10
     Filename D:\Music\My torrents\Центр\[1997] Смутное Пятно Неизвестно Чего\10. Центр - Пасека.wav
     Peak level 100.0 %
     Extraction speed 1.9 X
     Track quality 100.0 %
     Test CRC 77A4605F
     Copy CRC 77A4605F
     Track not present in AccurateRip database
     Copy OK
Track 11
     Filename D:\Music\My torrents\Центр\[1997] Смутное Пятно Неизвестно Чего\11. Центр - На Своих Двоих.wav
     Peak level 97.4 %
     Extraction speed 2.0 X
     Track quality 100.0 %
     Test CRC 4DA12347
     Copy CRC 4DA12347
     Track not present in AccurateRip database
     Copy OK
Track 12
     Filename D:\Music\My torrents\Центр\[1997] Смутное Пятно Неизвестно Чего\12. Центр - Красная Фея.wav
     Peak level 100.0 %
     Extraction speed 2.0 X
     Track quality 100.0 %
     Test CRC 9C6A6CED
     Copy CRC 9C6A6CED
     Track not present in AccurateRip database
     Copy OK
Track 13
     Filename D:\Music\My torrents\Центр\[1997] Смутное Пятно Неизвестно Чего\13. Центр - Аутотренинг.wav
     Peak level 86.9 %
     Extraction speed 0.7 X
     Track quality 100.0 %
     Test CRC 079AF7EC
     Copy CRC 079AF7EC
     Track not present in AccurateRip database
     Copy OK
Track 14
     Filename D:\Music\My torrents\Центр\[1997] Смутное Пятно Неизвестно Чего\14. Центр - Девушка.wav
     Peak level 100.0 %
     Extraction speed 2.2 X
     Track quality 100.0 %
     Test CRC 7AFDC97A
     Copy CRC 7AFDC97A
     Track not present in AccurateRip database
     Copy OK
None of the tracks are present in the AccurateRip database
No errors occurred
End of status report
---- CUETools DB Plugin V2.1.6
[CTDB TOCID: Bjfk467af1znhwcV45PwzD1GB98-] found
Submit result: Bjfk467af1znhwcV45PwzD1GB98- has been confirmed
Track | CTDB Status
  1   | (2/2) Accurately ripped
  2   | (2/2) Accurately ripped
  3   | (2/2) Accurately ripped
  4   | (2/2) Accurately ripped
  5   | (2/2) Accurately ripped
  6   | (2/2) Accurately ripped
  7   | (2/2) Accurately ripped
  8   | (2/2) Accurately ripped
  9   | (2/2) Accurately ripped
 10   | (2/2) Accurately ripped
 11   | (2/2) Accurately ripped
 12   | (2/2) Accurately ripped
 13   | (2/2) Accurately ripped
 14   | (2/2) Accurately ripped
==== Log checksum C15F1E376C1D251659EBFF007D601FF0EF682D20A636BC1BCC2FC382DB3D7004 ====
Код: Выделить всё
REM GENRE "Alternative Rock, Indie Rock"
REM DATE 1997
REM DISCID BE0A8B0E
REM COMMENT "ExactAudioCopy v1.3"
PERFORMER "Центр"
TITLE "Смутное Пятно Неизвестно Чего"
REM COMPOSER "Василий Шумов, Евгений Головин"
FILE "01. Центр - Натаскивание.flac" WAVE
  TRACK 01 AUDIO
    TITLE "Натаскивание"
    PERFORMER "Центр"
    REM COMPOSER "Василий Шумов, Евгений Головин"
    INDEX 01 00:00:00
FILE "02. Центр - Смутное Пятно Неизвестно Чего.flac" WAVE
  TRACK 02 AUDIO
    TITLE "Смутное Пятно Неизвестно Чего"
    PERFORMER "Центр"
    REM COMPOSER "Василий Шумов, Евгений Головин"
    INDEX 01 00:00:00
FILE "03. Центр - Иметь.flac" WAVE
  TRACK 03 AUDIO
    TITLE "Иметь"
    PERFORMER "Центр"
    REM COMPOSER "Василий Шумов, Евгений Головин"
    INDEX 01 00:00:00
FILE "04. Центр - Цивилизация Ларьков.flac" WAVE
  TRACK 04 AUDIO
    TITLE "Цивилизация Ларьков"
    PERFORMER "Центр"
    REM COMPOSER "Василий Шумов, Евгений Головин"
    INDEX 01 00:00:00
FILE "05. Центр - Урок Физики.flac" WAVE
  TRACK 05 AUDIO
    TITLE "Урок Физики"
    PERFORMER "Центр"
    REM COMPOSER "Василий Шумов, Евгений Головин"
    INDEX 01 00:00:00
FILE "06. Центр - Визитейшен.flac" WAVE
  TRACK 06 AUDIO
    TITLE "Визитейшен"
    PERFORMER "Центр"
    REM COMPOSER "Василий Шумов, Евгений Головин"
    INDEX 01 00:00:00
FILE "07. Центр - Гимн Драке.flac" WAVE
  TRACK 07 AUDIO
    TITLE "Гимн Драке"
    PERFORMER "Центр"
    REM COMPOSER "Василий Шумов, Евгений Головин"
    INDEX 01 00:00:00
FILE "08. Центр - Топот Диких Коней.flac" WAVE
  TRACK 08 AUDIO
    TITLE "Топот Диких Коней"
    PERFORMER "Центр"
    REM COMPOSER "Василий Шумов, Евгений Головин"
    INDEX 01 00:00:00
FILE "09. Центр - Процесс.flac" WAVE
  TRACK 09 AUDIO
    TITLE "Процесс"
    PERFORMER "Центр"
    REM COMPOSER "Василий Шумов, Евгений Головин"
    INDEX 01 00:00:00
FILE "10. Центр - Пасека.flac" WAVE
  TRACK 10 AUDIO
    TITLE "Пасека"
    PERFORMER "Центр"
    REM COMPOSER "Василий Шумов, Евгений Головин"
    INDEX 01 00:00:00
FILE "11. Центр - На Своих Двоих.flac" WAVE
  TRACK 11 AUDIO
    TITLE "На Своих Двоих"
    PERFORMER "Центр"
    REM COMPOSER "Василий Шумов, Евгений Головин"
    INDEX 01 00:00:00
FILE "12. Центр - Красная Фея.flac" WAVE
  TRACK 12 AUDIO
    TITLE "Красная Фея"
    PERFORMER "Центр"
    REM COMPOSER "Василий Шумов, Евгений Головин"
    INDEX 01 00:00:00
FILE "13. Центр - Аутотренинг.flac" WAVE
  TRACK 13 AUDIO
    TITLE "Аутотренинг"
    PERFORMER "Центр"
    REM COMPOSER "Василий Шумов, Евгений Головин"
    INDEX 01 00:00:00
FILE "14. Центр - Девушка.flac" WAVE
  TRACK 14 AUDIO
    TITLE "Девушка"
    PERFORMER "Центр"
    REM COMPOSER "Василий Шумов, Евгений Головин"
    INDEX 01 00:00:00
Код: Выделить всё
AUDIOCHECKER v2.0 beta (build 457) - by Dester - opdester@freemail.hu
~~~~~~~~~~~~~~~~~~~~~~~~~~~~~~~~~~
-=== DO NOT EDIT THIS FILE! ===-
Path: ...\[1997] Смутное Пятно Неизвестно Чего
01 -=- 01. Центр - Натаскивание.flac -=- CDDA (100%)
02 -=- 02. Центр - Смутное Пятно Неизвестно Чего.flac -=- CDDA (100%)
03 -=- 03. Центр - Иметь.flac -=- CDDA (100%)
04 -=- 04. Центр - Цивилизация Ларьков.flac -=- CDDA (100%)
05 -=- 05. Центр - Урок Физики.flac -=- CDDA (100%)
06 -=- 06. Центр - Визитейшен.flac -=- CDDA (100%)
07 -=- 07. Центр - Гимн Драке.flac -=- CDDA (99%)
08 -=- 08. Центр - Топот Диких Коней.flac -=- CDDA (100%)
09 -=- 09. Центр - Процесс.flac -=- CDDA (100%)
10 -=- 10. Центр - Пасека.flac -=- CDDA (100%)
11 -=- 11. Центр - На Своих Двоих.flac -=- CDDA (100%)
12 -=- 12. Центр - Красная Фея.flac -=- CDDA (100%)
13 -=- 13. Центр - Аутотренинг.flac -=- CDDA (100%)
14 -=- 14. Центр - Девушка.flac -=- CDDA (100%)
Summary 99,93% CDDA
258775940
foobar2000 1.3.10 / Замер динамического диапазона (DR) 1.1.1
Дата отчёта: 2019-04-29 16:24:07
--------------------------------------------------------------------------------
Анализ: Центр / Смутное Пятно Неизвестно Чего
--------------------------------------------------------------------------------
DR Пики RMS Продолжительность трека
--------------------------------------------------------------------------------
DR9 -1.67 дБ -13.91 дБ 0:34 01-Натаскивание
DR14 -0.27 дБ -15.41 дБ 3:47 02-Смутное Пятно Неизвестно Чего
DR12 -1.30 дБ -15.74 дБ 4:51 03-Иметь
DR12 -0.82 дБ -16.03 дБ 3:44 04-Цивилизация Ларьков
DR13 -1.53 дБ -19.39 дБ 0:18 05-Урок Физики
DR16 0.00 дБ -16.98 дБ 4:36 06-Визитейшен
DR14 -0.27 дБ -17.46 дБ 4:26 07-Гимн Драке
DR13 -1.98 дБ -16.25 дБ 4:57 08-Топот Диких Коней
DR11 -2.48 дБ -16.51 дБ 0:16 09-Процесс
DR14 0.00 дБ -16.21 дБ 4:19 10-Пасека
DR13 -0.22 дБ -15.90 дБ 4:44 11-На Своих Двоих
DR17 0.00 дБ -20.22 дБ 3:35 12-Красная Фея
DR14 -1.21 дБ -17.80 дБ 0:17 13-Аутотренинг
DR13 0.00 дБ -16.01 дБ 4:37 14-Девушка
--------------------------------------------------------------------------------
Количество треков: 14
Реальные значения DR: DR13
Частота: 44100 Гц
Каналов: 2
Разрядность: 16
Битрейт: 875 кбит/с
Кодек: FLAC
================================================================================
Центр / Легенды Русского Рока

#777Жанр: New Wave
Носитель: CD
Страна-производитель диска (релиза): Россия
Год издания: 1999
Издатель (лейбл): Moroz Records
Номер по каталогу: dMR 19199 CD
Страна исполнителя (группы): Россия
Аудиокодек: FLAC (*.flac)
Тип рипа: tracks+.cue
Продолжительность: 1:16:08.733 (201 481 140 samples)
Источник: собственный рип
Наличие сканов в содержимом раздачи: да
Треклист:
01. Привет [0:03:32.38]
02. Мальчик В Тенисных Туфлях [0:04:28.46]
03. Смутное Пятно Неизвестно Чего [0:03:45.20]
04. Тургеневские Женщины [0:03:48.10]
05. Володя, Потусторонний Шофер [0:03:22.64]
06. Навсегда [0:03:36.62]
07. Девушки Любят Летчиков [0:03:19.29]
08. Человек [0:03:45.42]
09. Иметь [0:04:50.31]
10. Фиолетовый Дым [0:04:36.04]
11. Жалобы [0:03:08.17]
12. Стюардесса Летних Линий [0:03:14.70]
13. Горизонтальные Люди [0:05:58.13]
14. Я Все Умею [0:04:18.31]
15. Случай В Метро [0:04:34.01]
16. Бесполезная Песня [0:03:18.36]
17. Новая Земля [0:03:48.53]
18. Химическая Зависимость [0:05:04.60]
19. Алексеев [0:03:37.28]
Код: Выделить всё
Exact Audio Copy V1.3 from 2. September 2016
EAC extraction logfile from 30. April 2019, 12:10
Центр / Легенды Русского Рока
Used drive  : MATSHITADVD-RAM UJ8B0AW   Adapter: 1  ID: 0
Read mode               : Secure
Utilize accurate stream : Yes
Defeat audio cache      : Yes
Make use of C2 pointers : No
Read offset correction                      : 102
Overread into Lead-In and Lead-Out          : No
Fill up missing offset samples with silence : Yes
Delete leading and trailing silent blocks   : No
Null samples used in CRC calculations       : Yes
Used interface                              : Native Win32 interface for Win NT & 2000
Gap handling                                : Appended to previous track
Used output format              : User Defined Encoder
Selected bitrate                : 1024 kBit/s
Quality                         : High
Add ID3 tag                     : No
Command line compressor         : C:\Program Files (x86)\Exact Audio Copy\FLAC\FLAC.EXE
Additional command line options : -V -8 -T "Genre=%genre%" -T "Artist=%artist%" -T "Title=%title%" -T "Album=%albumtitle%" -T "Date=%year%" -T "Tracknumber=%tracknr%" -T "Comment=%comment%" %source%
TOC of the extracted CD
     Track |   Start  |  Length  | Start sector | End sector
    ---------------------------------------------------------
        1  |  0:00.00 |  3:32.38 |         0    |    15937
        2  |  3:32.38 |  4:28.46 |     15938    |    36083
        3  |  8:01.09 |  3:45.20 |     36084    |    52978
        4  | 11:46.29 |  3:48.10 |     52979    |    70088
        5  | 15:34.39 |  3:22.64 |     70089    |    85302
        6  | 18:57.28 |  3:36.62 |     85303    |   101564
        7  | 22:34.15 |  3:19.29 |    101565    |   116518
        8  | 25:53.44 |  3:45.42 |    116519    |   133435
        9  | 29:39.11 |  4:50.31 |    133436    |   155216
       10  | 34:29.42 |  4:36.04 |    155217    |   175920
       11  | 39:05.46 |  3:08.17 |    175921    |   190037
       12  | 42:13.63 |  3:14.70 |    190038    |   204657
       13  | 45:28.58 |  5:58.13 |    204658    |   231520
       14  | 51:26.71 |  4:18.31 |    231521    |   250901
       15  | 55:45.27 |  4:34.01 |    250902    |   271452
       16  | 60:19.28 |  3:18.36 |    271453    |   286338
       17  | 63:37.64 |  3:48.53 |    286339    |   303491
       18  | 67:26.42 |  5:04.60 |    303492    |   326351
       19  | 72:31.27 |  3:37.28 |    326352    |   342654
Track  1
     Filename D:\Music\My torrents\Центр\[1999] ЛРР\01. Центр - Привет.wav
     Pre-gap length  0:00:02.00
     Peak level 99.9 %
     Extraction speed 1.2 X
     Track quality 100.0 %
     Test CRC 22E65A57
     Copy CRC 22E65A57
     Accurately ripped (confidence 3)  [4108D637]  (AR v2)
     Copy OK
Track  2
     Filename D:\Music\My torrents\Центр\[1999] ЛРР\02. Центр - Мальчик В Тенисных Туфлях.wav
     Peak level 99.9 %
     Extraction speed 1.3 X
     Track quality 100.0 %
     Test CRC 2D720654
     Copy CRC 2D720654
     Accurately ripped (confidence 2)  [066BC54B]  (AR v2)
     Copy OK
Track  3
     Filename D:\Music\My torrents\Центр\[1999] ЛРР\03. Центр - Смутное Пятно Неизвестно Чего.wav
     Peak level 99.9 %
     Extraction speed 1.4 X
     Track quality 100.0 %
     Test CRC F25F7B83
     Copy CRC F25F7B83
     Accurately ripped (confidence 3)  [B9248003]  (AR v2)
     Copy OK
Track  4
     Filename D:\Music\My torrents\Центр\[1999] ЛРР\04. Центр - Тургеневские Женщины.wav
     Peak level 99.9 %
     Extraction speed 1.5 X
     Track quality 100.0 %
     Test CRC 2E8D7C50
     Copy CRC 2E8D7C50
     Accurately ripped (confidence 2)  [6FB6FEC8]  (AR v2)
     Copy OK
Track  5
     Filename D:\Music\My torrents\Центр\[1999] ЛРР\05. Центр - Володя, Потусторонний Шофер.wav
     Peak level 84.1 %
     Extraction speed 1.3 X
     Track quality 99.9 %
     Test CRC EFDD0C34
     Copy CRC EFDD0C34
     Accurately ripped (confidence 2)  [F68122C0]  (AR v1)
     Copy OK
Track  6
     Filename D:\Music\My torrents\Центр\[1999] ЛРР\06. Центр - Навсегда.wav
     Peak level 99.9 %
     Extraction speed 1.7 X
     Track quality 100.0 %
     Test CRC 685BE44B
     Copy CRC 685BE44B
     Accurately ripped (confidence 2)  [3EEB57F8]  (AR v2)
     Copy OK
Track  7
     Filename D:\Music\My torrents\Центр\[1999] ЛРР\07. Центр - Девушки Любят Летчиков.wav
     Peak level 99.9 %
     Extraction speed 1.7 X
     Track quality 100.0 %
     Test CRC 871EEA86
     Copy CRC 871EEA86
     Accurately ripped (confidence 2)  [842E76C1]  (AR v2)
     Copy OK
Track  8
     Filename D:\Music\My torrents\Центр\[1999] ЛРР\08. Центр - Человек.wav
     Peak level 99.9 %
     Extraction speed 1.8 X
     Track quality 100.0 %
     Test CRC 420A0F07
     Copy CRC 420A0F07
     Accurately ripped (confidence 2)  [CF71DD72]  (AR v2)
     Copy OK
Track  9
     Filename D:\Music\My torrents\Центр\[1999] ЛРР\09. Центр - Иметь.wav
     Peak level 99.9 %
     Extraction speed 2.0 X
     Track quality 100.0 %
     Test CRC F3EADF19
     Copy CRC F3EADF19
     Accurately ripped (confidence 2)  [14C1F4E5]  (AR v2)
     Copy OK
Track 10
     Filename D:\Music\My torrents\Центр\[1999] ЛРР\10. Центр - Фиолетовый Дым.wav
     Peak level 99.9 %
     Extraction speed 2.0 X
     Track quality 100.0 %
     Test CRC A40CC279
     Copy CRC A40CC279
     Accurately ripped (confidence 2)  [D809ACAE]  (AR v2)
     Copy OK
Track 11
     Filename D:\Music\My torrents\Центр\[1999] ЛРР\11. Центр - Жалобы.wav
     Peak level 99.9 %
     Extraction speed 1.7 X
     Track quality 99.9 %
     Test CRC 25D15D10
     Copy CRC 25D15D10
     Accurately ripped (confidence 2)  [2EADE6BD]  (AR v2)
     Copy OK
Track 12
     Filename D:\Music\My torrents\Центр\[1999] ЛРР\12. Центр - Стюардесса Летних Линий.wav
     Peak level 99.9 %
     Extraction speed 2.1 X
     Track quality 100.0 %
     Test CRC 149C4A08
     Copy CRC 149C4A08
     Accurately ripped (confidence 2)  [1AECE76A]  (AR v2)
     Copy OK
Track 13
     Filename D:\Music\My torrents\Центр\[1999] ЛРР\13. Центр - Горизонтальные Люди.wav
     Peak level 99.9 %
     Extraction speed 2.3 X
     Track quality 100.0 %
     Test CRC F435028E
     Copy CRC F435028E
     Accurately ripped (confidence 2)  [A9F0F986]  (AR v2)
     Copy OK
Track 14
     Filename D:\Music\My torrents\Центр\[1999] ЛРР\14. Центр - Я Все Умею.wav
     Peak level 99.9 %
     Extraction speed 2.3 X
     Track quality 100.0 %
     Test CRC 3EA2E673
     Copy CRC 3EA2E673
     Accurately ripped (confidence 2)  [581EA7E6]  (AR v2)
     Copy OK
Track 15
     Filename D:\Music\My torrents\Центр\[1999] ЛРР\15. Центр - Случай В Метро.wav
     Peak level 77.6 %
     Extraction speed 2.4 X
     Track quality 100.0 %
     Test CRC E1A9DFCF
     Copy CRC E1A9DFCF
     Accurately ripped (confidence 2)  [755D2DD0]  (AR v2)
     Copy OK
Track 16
     Filename D:\Music\My torrents\Центр\[1999] ЛРР\16. Центр - Бесполезная Песня.wav
     Peak level 99.9 %
     Extraction speed 2.3 X
     Track quality 100.0 %
     Test CRC B4E57A38
     Copy CRC B4E57A38
     Accurately ripped (confidence 2)  [A7D0CDD4]  (AR v2)
     Copy OK
Track 17
     Filename D:\Music\My torrents\Центр\[1999] ЛРР\17. Центр - Новая Земля.wav
     Peak level 99.9 %
     Extraction speed 2.1 X
     Track quality 99.9 %
     Test CRC B64A8D00
     Copy CRC B64A8D00
     Accurately ripped (confidence 2)  [420FA5AD]  (AR v2)
     Copy OK
Track 18
     Filename D:\Music\My torrents\Центр\[1999] ЛРР\18. Центр - Химическая Зависимость.wav
     Peak level 67.4 %
     Extraction speed 2.3 X
     Track quality 99.9 %
     Test CRC E682C9F7
     Copy CRC E682C9F7
     Accurately ripped (confidence 2)  [4C0F3F6D]  (AR v2)
     Copy OK
Track 19
     Filename D:\Music\My torrents\Центр\[1999] ЛРР\19. Центр - Алексеев.wav
     Peak level 99.9 %
     Extraction speed 2.6 X
     Track quality 100.0 %
     Test CRC 6ABAE978
     Copy CRC 6ABAE978
     Accurately ripped (confidence 2)  [F58FB247]  (AR v1)
     Copy OK
All tracks accurately ripped
No errors occurred
End of status report
---- CUETools DB Plugin V2.1.6
[CTDB TOCID: ttDTOTIxpip.nzJ6ugnATbzV37s-] found
Submit result: ttDTOTIxpip.nzJ6ugnATbzV37s- has been confirmed
Track | CTDB Status
  1   | (9/9) Accurately ripped
  2   | (9/9) Accurately ripped
  3   | (9/9) Accurately ripped
  4   | (9/9) Accurately ripped
  5   | (9/9) Accurately ripped
  6   | (9/9) Accurately ripped
  7   | (9/9) Accurately ripped
  8   | (9/9) Accurately ripped
  9   | (8/9) Accurately ripped
 10   | (9/9) Accurately ripped
 11   | (8/9) Accurately ripped
 12   | (9/9) Accurately ripped
 13   | (9/9) Accurately ripped
 14   | (8/9) Accurately ripped
 15   | (8/9) Accurately ripped
 16   | (9/9) Accurately ripped
 17   | (8/9) Accurately ripped
 18   | (9/9) Accurately ripped
 19   | (9/9) Accurately ripped
==== Log checksum 7E68C1723EC00A252F1C0655FB136AAB6ED62DB2BE78ACBF45D68300A35FE898 ====
Код: Выделить всё
REM GENRE "New Wave"
REM DATE 1999
REM DISCID 1111D813
REM COMMENT "ExactAudioCopy v1.3"
PERFORMER "Центр"
TITLE "Легенды Русского Рока"
REM COMPOSER "Various"
FILE "01. Центр - Привет.flac" WAVE
  TRACK 01 AUDIO
    TITLE "Привет"
    PERFORMER "Центр"
    REM COMPOSER "Various"
    INDEX 01 00:00:00
FILE "02. Центр - Мальчик В Тенисных Туфлях.flac" WAVE
  TRACK 02 AUDIO
    TITLE "Мальчик В Тенисных Туфлях"
    PERFORMER "Центр"
    REM COMPOSER "Various"
    INDEX 01 00:00:00
FILE "03. Центр - Смутное Пятно Неизвестно Чего.flac" WAVE
  TRACK 03 AUDIO
    TITLE "Смутное Пятно Неизвестно Чего"
    PERFORMER "Центр"
    REM COMPOSER "Various"
    INDEX 01 00:00:00
FILE "04. Центр - Тургеневские Женщины.flac" WAVE
  TRACK 04 AUDIO
    TITLE "Тургеневские Женщины"
    PERFORMER "Центр"
    REM COMPOSER "Various"
    INDEX 01 00:00:00
FILE "05. Центр - Володя, Потусторонний Шофер.flac" WAVE
  TRACK 05 AUDIO
    TITLE "Володя, Потусторонний Шофер"
    PERFORMER "Центр"
    REM COMPOSER "Various"
    INDEX 01 00:00:00
FILE "06. Центр - Навсегда.flac" WAVE
  TRACK 06 AUDIO
    TITLE "Навсегда"
    PERFORMER "Центр"
    REM COMPOSER "Various"
    INDEX 01 00:00:00
FILE "07. Центр - Девушки Любят Летчиков.flac" WAVE
  TRACK 07 AUDIO
    TITLE "Девушки Любят Летчиков"
    PERFORMER "Центр"
    REM COMPOSER "Various"
    INDEX 01 00:00:00
FILE "08. Центр - Человек.flac" WAVE
  TRACK 08 AUDIO
    TITLE "Человек"
    PERFORMER "Центр"
    REM COMPOSER "Various"
    INDEX 01 00:00:00
FILE "09. Центр - Иметь.flac" WAVE
  TRACK 09 AUDIO
    TITLE "Иметь"
    PERFORMER "Центр"
    REM COMPOSER "Various"
    INDEX 01 00:00:00
FILE "10. Центр - Фиолетовый Дым.flac" WAVE
  TRACK 10 AUDIO
    TITLE "Фиолетовый Дым"
    PERFORMER "Центр"
    REM COMPOSER "Various"
    INDEX 01 00:00:00
FILE "11. Центр - Жалобы.flac" WAVE
  TRACK 11 AUDIO
    TITLE "Жалобы"
    PERFORMER "Центр"
    REM COMPOSER "Various"
    INDEX 01 00:00:00
FILE "12. Центр - Стюардесса Летних Линий.flac" WAVE
  TRACK 12 AUDIO
    TITLE "Стюардесса Летних Линий"
    PERFORMER "Центр"
    REM COMPOSER "Various"
    INDEX 01 00:00:00
FILE "13. Центр - Горизонтальные Люди.flac" WAVE
  TRACK 13 AUDIO
    TITLE "Горизонтальные Люди"
    PERFORMER "Центр"
    REM COMPOSER "Various"
    INDEX 01 00:00:00
FILE "14. Центр - Я Все Умею.flac" WAVE
  TRACK 14 AUDIO
    TITLE "Я Все Умею"
    PERFORMER "Центр"
    REM COMPOSER "Various"
    INDEX 01 00:00:00
FILE "15. Центр - Случай В Метро.flac" WAVE
  TRACK 15 AUDIO
    TITLE "Случай В Метро"
    PERFORMER "Центр"
    REM COMPOSER "Various"
    INDEX 01 00:00:00
FILE "16. Центр - Бесполезная Песня.flac" WAVE
  TRACK 16 AUDIO
    TITLE "Бесполезная Песня"
    PERFORMER "Центр"
    REM COMPOSER "Various"
    INDEX 01 00:00:00
FILE "17. Центр - Новая Земля.flac" WAVE
  TRACK 17 AUDIO
    TITLE "Новая Земля"
    PERFORMER "Центр"
    REM COMPOSER "Various"
    INDEX 01 00:00:00
FILE "18. Центр - Химическая Зависимость.flac" WAVE
  TRACK 18 AUDIO
    TITLE "Химическая Зависимость"
    PERFORMER "Центр"
    REM COMPOSER "Various"
    INDEX 01 00:00:00
FILE "19. Центр - Алексеев.flac" WAVE
  TRACK 19 AUDIO
    TITLE "Алексеев"
    PERFORMER "Центр"
    REM COMPOSER "Various"
    INDEX 01 00:00:00
Код: Выделить всё
AUDIOCHECKER v2.0 beta (build 457) - by Dester - opdester@freemail.hu
~~~~~~~~~~~~~~~~~~~~~~~~~~~~~~~~~~
-=== DO NOT EDIT THIS FILE! ===-
Path: ...\[1999] ЛРР
01 -=- 01. Центр - Привет.flac -=- CDDA (100%)
02 -=- 02. Центр - Мальчик В Тенисных Туфлях.flac -=- CDDA (100%)
03 -=- 03. Центр - Смутное Пятно Неизвестно Чего.flac -=- CDDA (99%)
04 -=- 04. Центр - Тургеневские Женщины.flac -=- CDDA (100%)
05 -=- 05. Центр - Володя, Потусторонний Шофер.flac -=- CDDA (99%)
06 -=- 06. Центр - Навсегда.flac -=- CDDA (100%)
07 -=- 07. Центр - Девушки Любят Летчиков.flac -=- CDDA (99%)
08 -=- 08. Центр - Человек.flac -=- CDDA (100%)
09 -=- 09. Центр - Иметь.flac -=- CDDA (100%)
10 -=- 10. Центр - Фиолетовый Дым.flac -=- CDDA (100%)
11 -=- 11. Центр - Жалобы.flac -=- CDDA (100%)
12 -=- 12. Центр - Стюардесса Летних Линий.flac -=- CDDA (100%)
13 -=- 13. Центр - Горизонтальные Люди.flac -=- CDDA (100%)
14 -=- 14. Центр - Я Все Умею.flac -=- CDDA (100%)
15 -=- 15. Центр - Случай В Метро.flac -=- CDDA (99%)
16 -=- 16. Центр - Бесполезная Песня.flac -=- CDDA (99%)
17 -=- 17. Центр - Новая Земля.flac -=- CDDA (100%)
18 -=- 18. Центр - Химическая Зависимость.flac -=- CDDA (100%)
19 -=- 19. Центр - Алексеев.flac -=- CDDA (100%)
Summary 99,74% CDDA
91812212
foobar2000 1.3.10 / Замер динамического диапазона (DR) 1.1.1
Дата отчёта: 2019-05-02 11:22:17
--------------------------------------------------------------------------------
Анализ: Центр / Легенды Русского Рока
--------------------------------------------------------------------------------
DR Пики RMS Продолжительность трека
--------------------------------------------------------------------------------
DR14 0.00 дБ -15.51 дБ 3:33 01-Привет
DR10 0.00 дБ -10.74 дБ 4:29 02-Мальчик В Тенисных Туфлях
DR14 0.00 дБ -14.97 дБ 3:45 03-Смутное Пятно Неизвестно Чего
DR13 0.00 дБ -15.03 дБ 3:48 04-Тургеневские Женщины
DR10 -1.50 дБ -12.97 дБ 3:23 05-Володя, Потусторонний Шофер
DR14 0.00 дБ -15.15 дБ 3:37 06-Навсегда
DR11 0.00 дБ -11.59 дБ 3:19 07-Девушки Любят Летчиков
DR15 0.00 дБ -15.66 дБ 3:46 08-Человек
DR12 0.00 дБ -14.21 дБ 4:50 09-Иметь
DR10 0.00 дБ -11.42 дБ 4:36 10-Фиолетовый Дым
DR13 0.00 дБ -15.36 дБ 3:08 11-Жалобы
DR10 0.00 дБ -11.25 дБ 3:15 12-Стюардесса Летних Линий
DR11 0.00 дБ -12.49 дБ 5:58 13-Горизонтальные Люди
DR12 0.00 дБ -12.79 дБ 4:18 14-Я Все Умею
DR13 -2.19 дБ -16.86 дБ 4:34 15-Случай В Метро
DR13 0.00 дБ -14.79 дБ 3:18 16-Бесполезная Песня
DR10 0.00 дБ -11.86 дБ 3:49 17-Новая Земля
DR10 -3.42 дБ -14.74 дБ 5:05 18-Химическая Зависимость
DR15 0.00 дБ -16.85 дБ 3:37 19-Алексеев
--------------------------------------------------------------------------------
Количество треков: 19
Реальные значения DR: DR12
Частота: 44100 Гц
Каналов: 2
Разрядность: 16
Битрейт: 815 кбит/с
Кодек: FLAC
================================================================================
Василий Шумов / Живая Коллекция

#777Жанр: Alternative Rock, New Wave, Indie Rock, Acoustic
Носитель: CD
Страна-производитель диска (релиза): Россия
Год издания: 2001
Издатель (лейбл): Media Star
Номер по каталогу: MS CD-01507
Страна исполнителя (группы): Россия
Аудиокодек: FLAC (*.flac)
Тип рипа: tracks+.cue
Продолжительность: 56:03.480 (148 329 468 samples)
Источник: собственный рип
Наличие сканов в содержимом раздачи: да
Треклист:
01. СОС [0:03:56.53]
02. Мальчик В Теннисных Туфлях [0:04:31.39]
03. Рок-Н-Ролл [0:03:21.29]
04. Чтение В Транспорте [0:04:24.11]
05. Девушки Любят Лётчиков [0:03:06.67]
06. Привет [0:03:37.00]
07. Навсегда [0:03:58.21]
08. Горизонтальные Люди [0:06:36.73]
09. Случай В Метро [0:05:07.53]
10. Расстройственность [0:04:43.37]
11. Кожаный Бар [0:04:13.19]
12. Девушка [0:04:49.18]
13. Смутное Пятно Неизвестно Чего [0:03:36.66]
Код: Выделить всё
Exact Audio Copy V1.3 from 2. September 2016
EAC extraction logfile from 30. April 2019, 13:26
Василий Шумов / Живая Коллекция
Used drive  : MATSHITADVD-RAM UJ8B0AW   Adapter: 1  ID: 0
Read mode               : Secure
Utilize accurate stream : Yes
Defeat audio cache      : Yes
Make use of C2 pointers : No
Read offset correction                      : 102
Overread into Lead-In and Lead-Out          : No
Fill up missing offset samples with silence : Yes
Delete leading and trailing silent blocks   : No
Null samples used in CRC calculations       : Yes
Used interface                              : Native Win32 interface for Win NT & 2000
Gap handling                                : Appended to previous track
Used output format              : User Defined Encoder
Selected bitrate                : 1024 kBit/s
Quality                         : High
Add ID3 tag                     : No
Command line compressor         : C:\Program Files (x86)\Exact Audio Copy\FLAC\FLAC.EXE
Additional command line options : -V -8 -T "Genre=%genre%" -T "Artist=%artist%" -T "Title=%title%" -T "Album=%albumtitle%" -T "Date=%year%" -T "Tracknumber=%tracknr%" -T "Comment=%comment%" %source%
TOC of the extracted CD
     Track |   Start  |  Length  | Start sector | End sector
    ---------------------------------------------------------
        1  |  0:00.00 |  3:56.53 |         0    |    17752
        2  |  3:56.53 |  4:31.39 |     17753    |    38116
        3  |  8:28.17 |  3:21.29 |     38117    |    53220
        4  | 11:49.46 |  4:24.11 |     53221    |    73031
        5  | 16:13.57 |  3:06.67 |     73032    |    87048
        6  | 19:20.49 |  3:37.00 |     87049    |   103323
        7  | 22:57.49 |  3:58.21 |    103324    |   121194
        8  | 26:55.70 |  6:36.73 |    121195    |   150967
        9  | 33:32.68 |  5:07.53 |    150968    |   174045
       10  | 38:40.46 |  4:43.37 |    174046    |   195307
       11  | 43:24.08 |  4:13.19 |    195308    |   214301
       12  | 47:37.27 |  4:49.18 |    214302    |   235994
       13  | 52:26.45 |  3:36.66 |    235995    |   252260
Track  1
     Filename D:\Music\My torrents\Центр\Василий Шумов [2001] Живая Коллекция\01. Василий Шумов - СОС.wav
     Pre-gap length  0:00:02.00
     Peak level 89.0 %
     Extraction speed 1.0 X
     Track quality 99.9 %
     Test CRC F79555CC
     Copy CRC F79555CC
     Track not present in AccurateRip database
     Copy OK
Track  2
     Filename D:\Music\My torrents\Центр\Василий Шумов [2001] Живая Коллекция\02. Василий Шумов - Мальчик В Теннисных Туфлях.wav
     Peak level 89.0 %
     Extraction speed 1.3 X
     Track quality 100.0 %
     Test CRC 4937766B
     Copy CRC 4937766B
     Track not present in AccurateRip database
     Copy OK
Track  3
     Filename D:\Music\My torrents\Центр\Василий Шумов [2001] Живая Коллекция\03. Василий Шумов - Рок-Н-Ролл.wav
     Peak level 90.0 %
     Extraction speed 1.4 X
     Track quality 100.0 %
     Test CRC C8CDD6DA
     Copy CRC C8CDD6DA
     Track not present in AccurateRip database
     Copy OK
Track  4
     Filename D:\Music\My torrents\Центр\Василий Шумов [2001] Живая Коллекция\04. Василий Шумов - Чтение В Транспорте.wav
     Peak level 89.4 %
     Extraction speed 1.5 X
     Track quality 100.0 %
     Test CRC 78843954
     Copy CRC 78843954
     Track not present in AccurateRip database
     Copy OK
Track  5
     Filename D:\Music\My torrents\Центр\Василий Шумов [2001] Живая Коллекция\05. Василий Шумов - Девушки Любят Лётчиков.wav
     Peak level 89.9 %
     Extraction speed 1.3 X
     Track quality 99.9 %
     Test CRC B1BCFCA4
     Copy CRC B1BCFCA4
     Track not present in AccurateRip database
     Copy OK
Track  6
     Filename D:\Music\My torrents\Центр\Василий Шумов [2001] Живая Коллекция\06. Василий Шумов - Привет.wav
     Peak level 89.0 %
     Extraction speed 1.7 X
     Track quality 100.0 %
     Test CRC 1EE28F1D
     Copy CRC 1EE28F1D
     Track not present in AccurateRip database
     Copy OK
Track  7
     Filename D:\Music\My torrents\Центр\Василий Шумов [2001] Живая Коллекция\07. Василий Шумов - Навсегда.wav
     Peak level 89.0 %
     Extraction speed 1.8 X
     Track quality 100.0 %
     Test CRC 32941488
     Copy CRC 32941488
     Track not present in AccurateRip database
     Copy OK
Track  8
     Filename D:\Music\My torrents\Центр\Василий Шумов [2001] Живая Коллекция\08. Василий Шумов - Горизонтальные Люди.wav
     Peak level 89.0 %
     Extraction speed 2.0 X
     Track quality 100.0 %
     Test CRC C9C3155F
     Copy CRC C9C3155F
     Track not present in AccurateRip database
     Copy OK
Track  9
     Filename D:\Music\My torrents\Центр\Василий Шумов [2001] Живая Коллекция\09. Василий Шумов - Случай В Метро.wav
     Peak level 89.0 %
     Extraction speed 2.1 X
     Track quality 100.0 %
     Test CRC E24917A5
     Copy CRC E24917A5
     Track not present in AccurateRip database
     Copy OK
Track 10
     Filename D:\Music\My torrents\Центр\Василий Шумов [2001] Живая Коллекция\10. Василий Шумов - Расстройственность.wav
     Peak level 88.8 %
     Extraction speed 1.9 X
     Track quality 99.9 %
     Test CRC 3A1DB8AD
     Copy CRC 3A1DB8AD
     Track not present in AccurateRip database
     Copy OK
Track 11
     Filename D:\Music\My torrents\Центр\Василий Шумов [2001] Живая Коллекция\11. Василий Шумов - Кожаный Бар.wav
     Peak level 89.4 %
     Extraction speed 2.2 X
     Track quality 100.0 %
     Test CRC CE52EC9A
     Copy CRC CE52EC9A
     Track not present in AccurateRip database
     Copy OK
Track 12
     Filename D:\Music\My torrents\Центр\Василий Шумов [2001] Живая Коллекция\12. Василий Шумов - Девушка.wav
     Peak level 88.8 %
     Extraction speed 2.3 X
     Track quality 100.0 %
     Test CRC CD23DC0F
     Copy CRC CD23DC0F
     Track not present in AccurateRip database
     Copy OK
Track 13
     Filename D:\Music\My torrents\Центр\Василий Шумов [2001] Живая Коллекция\13. Василий Шумов - Смутное Пятно Неизвестно Чего.wav
     Peak level 89.6 %
     Extraction speed 2.3 X
     Track quality 100.0 %
     Test CRC F423D2F9
     Copy CRC F423D2F9
     Track not present in AccurateRip database
     Copy OK
None of the tracks are present in the AccurateRip database
No errors occurred
End of status report
---- CUETools DB Plugin V2.1.6
[CTDB TOCID: oiBNGyD.V3fMWeaBNsZ9jJH0QfA-] found
Submit result: oiBNGyD.V3fMWeaBNsZ9jJH0QfA- has been confirmed
Track | CTDB Status
  1   | (1/1) Accurately ripped
  2   | (1/1) Accurately ripped
  3   | (1/1) Accurately ripped
  4   | (1/1) Accurately ripped
  5   | (1/1) Accurately ripped
  6   | (1/1) Accurately ripped
  7   | (1/1) Accurately ripped
  8   | (1/1) Accurately ripped
  9   | (1/1) Accurately ripped
 10   | (1/1) Accurately ripped
 11   | (1/1) Accurately ripped
 12   | (1/1) Accurately ripped
 13   | (1/1) Accurately ripped
==== Log checksum D1F886133795F8CE87C8D6B7710DF1475348966718193996136A4D2F276D1015 ====
Код: Выделить всё
REM GENRE "Alternative Rock, New Wave, Indie Rock, Acoustic"
REM DATE 2001
REM DISCID A60D230D
REM COMMENT "ExactAudioCopy v1.3"
PERFORMER "Василий Шумов"
TITLE "Живая Коллекция"
REM COMPOSER "Василий Шумов"
FILE "01. Василий Шумов - СОС.flac" WAVE
  TRACK 01 AUDIO
    TITLE "СОС"
    PERFORMER "Василий Шумов"
    REM COMPOSER "Василий Шумов"
    INDEX 01 00:00:00
FILE "02. Василий Шумов - Мальчик В Теннисных Туфлях.flac" WAVE
  TRACK 02 AUDIO
    TITLE "Мальчик В Теннисных Туфлях"
    PERFORMER "Василий Шумов"
    REM COMPOSER "Василий Шумов"
    INDEX 01 00:00:00
FILE "03. Василий Шумов - Рок-Н-Ролл.flac" WAVE
  TRACK 03 AUDIO
    TITLE "Рок-Н-Ролл"
    PERFORMER "Василий Шумов"
    REM COMPOSER "Василий Шумов"
    INDEX 01 00:00:00
FILE "04. Василий Шумов - Чтение В Транспорте.flac" WAVE
  TRACK 04 AUDIO
    TITLE "Чтение В Транспорте"
    PERFORMER "Василий Шумов"
    REM COMPOSER "Василий Шумов"
    INDEX 01 00:00:00
FILE "05. Василий Шумов - Девушки Любят Лётчиков.flac" WAVE
  TRACK 05 AUDIO
    TITLE "Девушки Любят Лётчиков"
    PERFORMER "Василий Шумов"
    REM COMPOSER "Василий Шумов"
    INDEX 01 00:00:00
FILE "06. Василий Шумов - Привет.flac" WAVE
  TRACK 06 AUDIO
    TITLE "Привет"
    PERFORMER "Василий Шумов"
    REM COMPOSER "Василий Шумов"
    INDEX 01 00:00:00
FILE "07. Василий Шумов - Навсегда.flac" WAVE
  TRACK 07 AUDIO
    TITLE "Навсегда"
    PERFORMER "Василий Шумов"
    REM COMPOSER "Василий Шумов"
    INDEX 01 00:00:00
FILE "08. Василий Шумов - Горизонтальные Люди.flac" WAVE
  TRACK 08 AUDIO
    TITLE "Горизонтальные Люди"
    PERFORMER "Василий Шумов"
    REM COMPOSER "Василий Шумов"
    INDEX 01 00:00:00
FILE "09. Василий Шумов - Случай В Метро.flac" WAVE
  TRACK 09 AUDIO
    TITLE "Случай В Метро"
    PERFORMER "Василий Шумов"
    REM COMPOSER "Василий Шумов"
    INDEX 01 00:00:00
FILE "10. Василий Шумов - Расстройственность.flac" WAVE
  TRACK 10 AUDIO
    TITLE "Расстройственность"
    PERFORMER "Василий Шумов"
    REM COMPOSER "Василий Шумов"
    INDEX 01 00:00:00
FILE "11. Василий Шумов - Кожаный Бар.flac" WAVE
  TRACK 11 AUDIO
    TITLE "Кожаный Бар"
    PERFORMER "Василий Шумов"
    REM COMPOSER "Василий Шумов"
    INDEX 01 00:00:00
FILE "12. Василий Шумов - Девушка.flac" WAVE
  TRACK 12 AUDIO
    TITLE "Девушка"
    PERFORMER "Василий Шумов"
    REM COMPOSER "Василий Шумов"
    INDEX 01 00:00:00
FILE "13. Василий Шумов - Смутное Пятно Неизвестно Чего.flac" WAVE
  TRACK 13 AUDIO
    TITLE "Смутное Пятно Неизвестно Чего"
    PERFORMER "Василий Шумов"
    REM COMPOSER "Василий Шумов"
    INDEX 01 00:00:00
Код: Выделить всё
AUDIOCHECKER v2.0 beta (build 457) - by Dester - opdester@freemail.hu
~~~~~~~~~~~~~~~~~~~~~~~~~~~~~~~~~~
-=== DO NOT EDIT THIS FILE! ===-
Path: ...\Василий Шумов [2001] Живая Коллекция
01 -=- 01. Василий Шумов - СОС.flac -=- CDDA (100%)
02 -=- 02. Василий Шумов - Мальчик В Теннисных Туфлях.flac -=- CDDA (100%)
03 -=- 03. Василий Шумов - Рок-Н-Ролл.flac -=- CDDA (100%)
04 -=- 04. Василий Шумов - Чтение В Транспорте.flac -=- CDDA (99%)
05 -=- 05. Василий Шумов - Девушки Любят Лётчиков.flac -=- CDDA (100%)
06 -=- 06. Василий Шумов - Привет.flac -=- CDDA (100%)
07 -=- 07. Василий Шумов - Навсегда.flac -=- CDDA (100%)
08 -=- 08. Василий Шумов - Горизонтальные Люди.flac -=- CDDA (100%)
09 -=- 09. Василий Шумов - Случай В Метро.flac -=- CDDA (100%)
foobar2000 1.3.10 / Замер динамического диапазона (DR) 1.1.1
Дата отчёта: 2019-05-02 11:48:48
--------------------------------------------------------------------------------
Анализ: Василий Шумов / Живая Коллекция
--------------------------------------------------------------------------------
DR Пики RMS Продолжительность трека
--------------------------------------------------------------------------------
DR14 -1.01 дБ -19.17 дБ 3:57 01-СОС
DR12 -1.01 дБ -14.30 дБ 4:32 02-Мальчик В Теннисных Туфлях
DR10 -0.91 дБ -12.69 дБ 3:21 03-Рок-Н-Ролл
DR13 -0.97 дБ -15.81 дБ 4:24 04-Чтение В Транспорте
DR10 -0.92 дБ -12.50 дБ 3:07 05-Девушки Любят Лётчиков
DR10 -1.00 дБ -12.82 дБ 3:37 06-Привет
DR11 -1.01 дБ -14.24 дБ 3:58 07-Навсегда
DR14 -1.01 дБ -16.79 дБ 6:37 08-Горизонтальные Люди
DR12 -1.00 дБ -14.20 дБ 5:08 09-Случай В Метро
DR13 -1.02 дБ -16.45 дБ 4:43 10-Расстройственность
DR14 -0.97 дБ -16.30 дБ 4:13 11-Кожаный Бар
DR14 -1.03 дБ -16.56 дБ 4:49 12-Девушка
DR13 -0.95 дБ -15.26 дБ 3:37 13-Смутное Пятно Неизвестно Чего
--------------------------------------------------------------------------------
Количество треков: 13
Реальные значения DR: DR12
Частота: 44100 Гц
Каналов: 2
Разрядность: 16
Битрейт: 976 кбит/с
Кодек: FLAC
================================================================================
torrent "перезалит" 02 мая 2019 года. Изменен формат раздачи
Правила, инструкции, FAQ!!!
Торрент  Добавлен [12 май 2019, 16:52] Скачать торрент Магнет ссылка
Скачать торрент
29.11 КБ

Статус
Проверен 
 
Размер  2.37 ГБ
Приватный: Нет (DHT включён)
.torrent скачан  1
Как залить торрент? | Как скачать Torrent? | Как смотреть и слушать онлайн?  
Гость
 


Вернуться в Русский рок

Кто сейчас на конференции

Сейчас этот форум просматривают: нет зарегистрированных пользователей и гости: 1