Пассажиры / Passengers (2016) BDRip 1080p HEVC | 3D-Video | OU | D | Лицензия


Статистика раздачи
Размер: 6.33 ГБ | Добавлен: 02 апр 2017, 22:48 | Скачали: 260
Сидеров: 62  [0 байт/сек]    Личеров: 28  [0 байт/сек]

Сообщение Гость » 02 апр 2017, 22:48

Название: Пассажиры
Оригинальное название: Passengers
Год выхода: 2016
Жанр: фантастика, драма
Режиссер: Мортен Тильдум
В ролях: Дженнифер Лоуренс, Крис Пратт, Майкл Шин, Лоренс Фишбёрн, Энди Гарсиа, Винс Фостер, Кара Мишель Уайлдер, Конор Брофи, Джули Серда, Аврора Перрино

О фильме:
Космический корабль с 5 000 пассажирами на борту, погруженных на время полета в искусственный сон, держит курс на планету, которая станет для них новым домом. Всё идет по плану, но из-за сбоя системы двое пассажиров неожиданно просыпаются и понимают, что до конечного пункта путешествия 90 лет пути, и им суждено остаток жизни провести вдвоем в роскошных интерьерах корабля, оснащенного по последнему слову техники. Постепенно Джима и Аврору начинает непреодолимо тянуть друг к другу, но корабль попадает в беду, и теперь в их руках — жизнь и судьба всех обитателей корабля.


Официальный сайт

Страна: США
Студия: Columbia Pictures, Company Films, LStar Capital, Original Film, Start Motion Pictures, Village Roadshow Pictures, WanDa Pictures
Продолжительность: 01:56:10
Перевод: Дубляж (Blu-ray CEE)


Кодек: H.265/HEVC
Качество: BDRip 1080p HEVC
Видео: 1920x2160 px, ~6999 kb/s (avg), 23,976 fps
Звук: Русский AC3, 640 kbps, 5.1 ch, 16 bits
Субтитры: Русские (forced hardsub 3D)
3D: Левый ракурс сверху

Семпл

General
Unique ID : 198721309703324315182767082910394911681 (0x9580550425F7BAB4B70D0D53CF548BC1)
Complete name : Passengers (2016) 1080p HEVC 3D-ab.mkv
Format : Matroska
Format version : Version 3 / Version 2
File size : 6.33 GiB
Duration : 1 h 56 min
Overall bit rate : 7 795 kb/s
Movie name : Passengers (2016) 3D Full-T&B (x265)
Encoded date : UTC 2017-04-02 07:52:07
Writing application : mkvmerge v10.0.0 ('To Drown In You') 64bit
Writing library : libebml v1.3.4 + libmatroska v1.4.5

Video
ID : 1
Format : HEVC
Format/Info : High Efficiency Video Coding
Format profile : Main 10@L5@High
MultiView_Count : 2
MultiView_Layout : Top-Bottom (left eye first)
Codec ID : V_MPEGH/ISO/HEVC
Duration : 1 h 56 min
Bit rate : 6 999 kb/s
Width : 1 920 pixels
Height : 2 160 pixels
Display aspect ratio : 0.889
Original display aspect ratio : 16:9
Frame rate mode : Constant
Frame rate : 23.976 (24000/1001) FPS
Color space : YUV
Chroma subsampling : 4:2:0
Bit depth : 10 bits
Bits/(Pixel*Frame) : 0.070
Stream size : 5.68 GiB (90%)
Title : 3D Full-T&B (x265)
Writing library : x265 2.3+22-db5e22b856f5:[Windows][GCC 6.3.0][64 bit] 10bit
Encoding settings : cpuid=1050111 / frame-threads=3 / numa-pools=8 / wpp / no-pmode / no-pme / no-psnr / no-ssim / log-level=2 / input-csp=1 / input-res=1920x2160 / interlace=0 / total-frames=167136 / level-idc=50 / high-tier=1 / uhd-bd=0 / ref=1 / no-allow-non-conformance / no-repeat-headers / annexb / no-aud / no-hrd / info / hash=0 / no-temporal-layers / open-gop / min-keyint=23 / keyint=250 / bframes=4 / b-adapt=2 / b-pyramid / bframe-bias=0 / rc-lookahead=40 / lookahead-slices=2 / scenecut=40 / no-intra-refresh / ctu=32 / min-cu-size=8 / no-rect / no-amp / max-tu-size=16 / tu-inter-depth=1 / tu-intra-depth=1 / limit-tu=0 / rdoq-level=2 / dynamic-rd=4.00 / signhide / no-tskip / nr-intra=0 / nr-inter=0 / no-constrained-intra / no-strong-intra-smoothing / max-merge=2 / limit-refs=0 / no-limit-modes / me=3 / subme=7 / merange=25 / temporal-mvp / weightp / weightb / no-analyze-src-pics / no-deblock / no-sao / no-sao-non-deblock / rd=3 / early-skip / no-rskip / no-fast-intra / no-tskip-fast / no-cu-lossless / no-b-intra / rdpenalty=0 / psy-rd=2.50 / psy-rdoq=2.00 / no-rd-refine / analysis-mode=0 / no-lossless / cbqpoffs=0 / crqpoffs=0 / rc=crf / crf=22.0 / qcomp=0.80 / qpstep=1 / stats-write=0 / stats-read=0 / vbv-maxrate=100000 / vbv-bufsize=100000 / vbv-init=0.9 / crf-max=0.0 / crf-min=0.0 / ipratio=1.10 / pbratio=1.10 / aq-mode=3 / aq-strength=1.00 / no-cutree / zone-count=0 / no-strict-cbr / qg-size=16 / no-rc-grain / qpmax=51 / qpmin=0 / sar=16 / overscan=0 / videoformat=5 / range=0 / colorprim=1 / transfer=2 / colormatrix=2 / chromaloc=0 / display-window=0 / max-cll=0,0 / min-luma=0 / max-luma=1023 / log2-max-poc-lsb=8 / vui-timing-info / vui-hrd-info / slices=1 / opt-qp-pps / opt-ref-list-length-pps / no-multi-pass-opt-rps / scenecut-bias=0.05 / no-opt-cu-delta-qp / aq-motion / no-hdr / no-hdr-opt / refine-level=5
Language : Russian
Default : Yes
Forced : No
Color range : Limited
Color primaries : BT.709

Audio
ID : 2
Format : AC-3
Format/Info : Audio Coding 3
Format settings, Endianness : Big
Codec ID : A_AC3
Duration : 1 h 56 min
Bit rate mode : Constant
Bit rate : 640 kb/s
Channel(s) : 6 channels
Channel positions : Front: L C R, Side: L R, LFE
Sampling rate : 48.0 kHz
Frame rate : 31.250 FPS (1536 spf)
Bit depth : 16 bits
Compression mode : Lossy
Delay relative to video : 25 ms
Stream size : 532 MiB (8%)
Title : Russian (AC3 5.1 48KHz)
Language : Russian
Service kind : Complete Main
Default : Yes
Forced : No

Menu
00:00:00.000 : :1 - 0:00:00
00:07:04.674 : :2 - 0:07:05
00:14:38.210 : :3 - 0:14:38
00:20:33.649 : :4 - 0:20:34
00:25:06.338 : :5 - 0:25:06
00:30:30.662 : :6 - 0:30:31
00:40:47.987 : :7 - 0:40:48
00:50:23.019 : :8 - 0:50:23
00:57:28.945 : :9 - 0:57:29
01:02:54.812 : :10 - 1:02:55
01:10:47.159 : :11 - 1:10:47
01:17:48.663 : :12 - 1:17:49
01:25:17.028 : :13 - 1:25:17
01:31:45.041 : :14 - 1:31:45
01:37:53.242 : :15 - 1:37:53
01:42:18.549 : :16 - 1:42:19
Правила, инструкции, FAQ!!!
Торрент  Добавлен [02 апр 2017, 22:48] Скачать торрент Магнет ссылка
Скачать торрент
32.62 КБ

Статус
Проверен 
 
Размер  6.33 ГБ
Приватный: Нет (DHT включён)
.torrent скачан  260
Как залить торрент? | Как скачать Torrent? | Как смотреть и слушать онлайн?  
Гость
 


Вернуться в HD-Video в 3D

Кто сейчас на конференции

Сейчас этот форум просматривают: нет зарегистрированных пользователей и гости: 0