(Power Metal) [WEB] Stormhammer - Seven Seals - 2019, FLAC (tracks), lossless


Статистика раздачи
Размер: 400.35 МБ | Добавлен: 26 май 2019, 13:28 | Скачали: 0
Сидеров: 2  [0 байт/сек]    Личеров: 1  [0 байт/сек]

Сообщение Гость » 26 май 2019, 13:28

Stormhammer - Seven Seals
Жанр: Power Metal
Носитель: WEB
Год издания: 2019
Издатель-лейбл: Massacre Records
Страна исполнителя: Germany
Аудиокодек: FLAC (*.flac)
Тип рипа: tracks
Битрейт аудио: lossless
Продолжительность: 00:52:23
Источник: интернет
Наличие сканов: нет
Треклист:
01. Sleepwalker (4:35)
02. Prevail (4:20)
03. Under the Spell (3:46)
04. Taken by the Devil (5:04)
05. Seven Seals (3:54)
06. Your Nemesis (4:04)
07. Keep Me Safe (4:19)
08. One More Way (6:00)
09. Downfall (4:13)
10. Deal with the Dead (5:45)
11. Old Coals (6:25)
Код: Выделить всё
CUE Corrector v. 8.3.5 / b. 914 (May. 21, 2019)
————————————————————————————————————————————————————————————————————————
Stormhammer / Seven Seals
Folder: Stormhammer - 2019 - Seven Seals [FLAC]
Audio files:
    01 Sleepwalker.flac [04:34.627; FLAC • 1062 kbps • 16 bit \ 44100 Hz • stereo; 34.79 MB (36 481 446 B)]
    02 Prevail.flac [04:19.560; FLAC • 1066 kbps • 16 bit \ 44100 Hz • stereo; 32.99 MB (34 591 713 B)]
    03 Under the Spell.flac [03:45.627; FLAC • 1092 kbps • 16 bit \ 44100 Hz • stereo; 29.37 MB (30 800 058 B)]
    04 Taken by the Devil.flac [05:04.440; FLAC • 1013 kbps • 16 bit \ 44100 Hz • stereo; 36.76 MB (38 550 322 B)]
    05 Seven Seals.flac [03:53.933; FLAC • 1088 kbps • 16 bit \ 44100 Hz • stereo; 30.35 MB (31 829 321 B)]
    06 Your Nemesis.flac [04:04.373; FLAC • 1088 kbps • 16 bit \ 44100 Hz • stereo; 31.71 MB (33 248 336 B)]
    07 Keep Me Safe.flac [04:18.507; FLAC • 1080 kbps • 16 bit \ 44100 Hz • stereo; 33.29 MB (34 905 483 B)]
    08 One More Way.flac [06:00.133; FLAC • 1048 kbps • 16 bit \ 44100 Hz • stereo; 45.02 MB (47 204 787 B)]
    09 Downfall.flac [04:13.253; FLAC • 1071 kbps • 16 bit \ 44100 Hz • stereo; 32.34 MB (33 915 645 B)]
    10 Deal with the Dead.flac [05:44.880; FLAC • 1084 kbps • 16 bit \ 44100 Hz • stereo; 44.61 MB (46 772 392 B)]
    11 Old Coals.flac [06:24.627; FLAC • 1061 kbps • 16 bit \ 44100 Hz • stereo; 48.67 MB (51 035 449 B)]
Accuracy: -m9
File 01 Sleepwalker        -  99% CDDA [04:34:47]
File 02 Prevail            - 100% CDDA [04:19:42]
File 03 Under the Spell    -  99% CDDA [03:45:47]
File 04 Taken by the Devil - 100% CDDA [05:04:33]
File 05 Seven Seals        - 100% CDDA [03:53:70]
File 06 Your Nemesis       - 100% CDDA [04:04:28]
File 07 Keep Me Safe       - 100% CDDA [04:18:38]
File 08 One More Way       - 100% CDDA [06:00:10]
File 09 Downfall           - 100% CDDA [04:13:19]
File 10 Deal with the Dead - 100% CDDA [05:44:66]
File 11 Old Coals          - 100% CDDA [06:24:47]
————— Summary: —————
These tracks looks like CDDA with probability 100%.
————————————————————————————————————————————————————————————————————————
ANALYZER:
    auCDtect: CD records authenticity detector, version 0.8.2
    Copyright (c) 2004 Oleg Berngardt. All rights reserved.
    Copyright (c) 2004 Alexander Djourik. All rights reserved.
Time elapsed: 13.2 s
Log created at May 23, 2019 15:49:11
=== 7D5A987AB13B49D90DF2EE83B12DE911C3BBAF4BE2A2E2551F41CDB53A9A4B26 ===
Код: Выделить всё
[CUETools log; Date: 23.05.2019 15:49:53; Version: 2.1.6]
[CTDB TOCID: mhThYLwRZdThkpr5iu8YWZJNLQc-] disk not present in database.
[AccurateRip ID: 00145143-00b197e6-810c470b] disk not present in database.
Track Peak [ CRC32  ] [W/O NULL]
 --   99,7 [899B7AFC] [50E31BCD]
 01   99,7 [863A1660] [FCC0C70A]
 02   99,7 [FD09A9C3] [DF0434AD]
 03   99,7 [510159D0] [13EF9623]
 04   99,7 [AB593D3D] [3FF68A07]
 05   99,7 [3A1B8F4F] [88F378F6]
 06   99,7 [106AB0B0] [D89E2073]
 07   99,7 [E5803E9A] [68635288]
 08   99,7 [AA8330F7] [10D06B83]
 09   99,7 [0D689BE8] [09817D2C]
 10   99,7 [AFB842DB] [E2E17C06]
 11   99,7 [1CD0E192] [2F8BC8F8]
Код: Выделить всё
foobar2000 1.4.3 / Замер динамического диапазона (DR) 1.1.1
Дата отчёта:  2019-05-23 15:48:58
--------------------------------------------------------------------------------
Анализ:   Stormhammer / Seven Seals
--------------------------------------------------------------------------------
DR         Пики         RMS           Продолжительность трека
--------------------------------------------------------------------------------
DR5       -0.02 дБ    -6.26 дБ      4:35 01-Sleepwalker
DR6       -0.02 дБ    -6.58 дБ      4:20 02-Prevail
DR5       -0.02 дБ    -6.18 дБ      3:46 03-Under the Spell
DR5       -0.02 дБ    -6.77 дБ      5:04 04-Taken by the Devil
DR5       -0.02 дБ    -6.38 дБ      3:54 05-Seven Seals
DR5       -0.02 дБ    -5.58 дБ      4:04 06-Your Nemesis
DR5       -0.02 дБ    -5.96 дБ      4:19 07-Keep Me Safe
DR5       -0.02 дБ    -6.28 дБ      6:00 08-One More Way
DR5       -0.02 дБ    -6.34 дБ      4:13 09-Downfall
DR5       -0.02 дБ    -6.24 дБ      5:45 10-Deal with the Dead
DR5       -0.02 дБ    -6.19 дБ      6:25 11-Old Coals
--------------------------------------------------------------------------------
Количество треков: 11
Реальные значения DR: DR5
Частота:   44100 Гц
Каналов:   2
Разрядность:   16
Битрейт:   1052 кбит/с
Кодек:   FLAC
================================================================================
Правила, инструкции, FAQ!!!
Торрент  Добавлен [26 май 2019, 13:28] Скачать торрент Магнет ссылка
Скачать торрент
16.67 КБ

Статус
Проверен 
 
Размер  400.35 МБ
Приватный: Нет (DHT включён)
.torrent скачан  0
Как залить торрент? | Как скачать Torrent? | Как смотреть и слушать онлайн?  
Гость
 



Вернуться в Heavy, Power, Progressive (Metal)

Кто сейчас на конференции

Сейчас этот форум просматривают: нет зарегистрированных пользователей и гости: 0