(Power | Progressive Metal) [WEB] Silent Winter - The Circles of Hell - 2019, FLAC (tracks), lossless


Статистика раздачи
Размер: 273.27 МБ | Добавлен: 04 июн 2019, 21:24 | Скачали: 2
Сидеров: 19  [0 байт/сек]    Личеров: 6  [0 байт/сек]

Сообщение Гость » 04 июн 2019, 21:24


Silent Winter

The Circles of Hell





• Жанр: Power | Progressive Metal
• Носитель: WEB
• Год издания: 2019
• Страна: Greece
• Аудиокодек: FLAC (*.flac)
• Тип рипа: tracks
• Продолжительность: 00:39:25
• Источник: internet
• Наличие сканов: front

01 - Infernum (00:00:34)
02 - Soul Reaper (00:04:32)
03 - Warriors Of The Sun (00:03:32)
04 - Follow The Night (00:04:06)
05 - Final Storm (00:03:33)
06 - Your Time Has Come (00:05:15)
07 - Silent Cry (00:06:23)
08 - Keeper Of The Light (00:04:49)
09 - The Circles Of Hell (00:06:37)


Код: Выделить всё
foobar2000 1.4.2 / Dynamic Range Meter 1.1.1
log date: 2019-06-03 06:40:46
--------------------------------------------------------------------------------
Analyzed: Silent Winter / The Circles of Hell
--------------------------------------------------------------------------------
DR         Peak         RMS     Duration Track
--------------------------------------------------------------------------------
DR9       -0.26 dB   -12.92 dB      0:34 01-Infernum
DR6       -0.01 dB    -6.36 dB      4:32 02-Soul Reaper
DR6       -0.01 dB    -6.61 dB      3:33 03-Warriors of the SUN
DR6       -0.01 dB    -6.70 dB      4:07 04-Follow the Night
DR6       -0.01 dB    -7.09 dB      3:34 05-Final Storm
DR6       -0.01 dB    -6.67 dB      5:15 06-Your Time Has Come
DR6       -0.01 dB    -7.55 dB      6:23 07-Silent CRY
DR6       -0.01 dB    -7.06 dB      4:50 08-Keeper of the Light
DR6       -0.01 dB    -7.76 dB      6:38 09-THE Circles of Hell
--------------------------------------------------------------------------------
Number of tracks:  9
Official DR value: DR6
Samplerate:        44100 Hz
Channels:          2
Bits per sample:   16
Bitrate:           896 kbps
Codec:             FLAC
================================================================================

Код: Выделить всё
-----------------------
DON'T MODIFY THIS FILE
-----------------------
PERFORMER: auCDtect Task Manager, ver. 1.6.0 RC1 build 1.6.0.1
Copyright (c) 2008-2010 y-soft. All rights reserved
[url=http://y-soft.org]http://y-soft.org[/url]
ANALYZER: auCDtect: CD records authenticity detector, version 0.8.2
Copyright (c) 2004 Oleg Berngardt. All rights reserved.
Copyright (c) 2004 Alexander Djourik. All rights reserved.
FILE: 09 - The Circles Of Hell.flac
  Size: 44646347 Hash: FB9D9529FCB82137BC1A280A2312ACD7 Accuracy: -m8
  Conclusion: CDDA 100%
  Signature: 9622E7B977B724E25EF6764F9609EABD0525FCB0
FILE: 08 - Keeper Of The Light.flac
  Size: 35598158 Hash: FB09B21FABEB1A695E94E6F7C143CB5B Accuracy: -m8
  Conclusion: CDDA 100%
  Signature: C1727ABD7348CC604392242B95837DEF7A390410
FILE: 07 - Silent Cry.flac
  Size: 44526840 Hash: 9DE4881CC5B6DC1DD0A6A41FA4C50CEC Accuracy: -m8
  Conclusion: CDDA 100%
  Signature: B9387AC04870F45052EE4DFC16075FFED0ECCE3B
FILE: 06 - Your Time Has Come.flac
  Size: 38404016 Hash: F649A6B66D1D8ABE2CA3674C3A40C22E Accuracy: -m8
  Conclusion: CDDA 100%
  Signature: B8B38CEF5905D3EAF995DB3D6D9670D5645DB860
FILE: 05 - Final Storm.flac
  Size: 26473921 Hash: 0166168A9592892C68716E8B4D856992 Accuracy: -m8
  Conclusion: CDDA 100%
  Signature: F128CCB5C682A75F84CB41AA929F9E03E6A846E7
FILE: 04 - Follow The Night.flac
  Size: 31600808 Hash: D595E5A597ECB5E5B4961E2FC9A543B1 Accuracy: -m8
  Conclusion: CDDA 100%
  Signature: 2DB6AF6FFF893D03868B56C0DBD537F1F36822D1
FILE: 03 - Warriors Of The Sun.flac
  Size: 27132875 Hash: F924AD7FFF9D6928AA255B31743076F0 Accuracy: -m8
  Conclusion: CDDA 100%
  Signature: 7A040F7D6270D983F3F171089F847FCD132C5DC3
FILE: 02 - Soul Reaper.flac
  Size: 33935126 Hash: 4ABE0B259B05A0AC0B4CF6F4F1CABE13 Accuracy: -m8
  Conclusion: CDDA 100%
  Signature: EF7DB233F88E209E98C13DED5B877B406DC9112F
FILE: 01 - Infernum.flac
  Size: 2993520 Hash: 127B858456532D09469D38E0C9D62E30 Accuracy: -m8
  Conclusion: CDDA 100%
  Signature: F43202E7DE1B29063BAC71A732F738AADD5F3AD0

Line-Up:
Mike Livas - Vocals
Themis Karvelis - Guitars
Kiriakos Balanos - Guitars
Giorgos Loukakis - Bass
Yiannis Manopoulos - Keyboards
John Antonopoulos - Drums
Label: Sonic Age Records.
Released 30 May 2019.
https://silent-winter.webnode.gr/
https://silentwinter.bandcamp.com/
https://www.metal-archives.com/bands/Silent_Winter/84549

Правила, инструкции, FAQ!!!
Торрент  Добавлен [04 июн 2019, 21:24] Скачать торрент Магнет ссылка
Скачать торрент
11.67 КБ

Статус
Проверен 
 
Размер  273.27 МБ
Приватный: Нет (DHT включён)
.torrent скачан  2
Как залить торрент? | Как скачать Torrent? | Как смотреть и слушать онлайн?  
Гость
 



Вернуться в Heavy, Power, Progressive (Metal)

Кто сейчас на конференции

Сейчас этот форум просматривают: нет зарегистрированных пользователей и гости: 0