(Prog Rock) [CD] Atlantis - Top Of The Bill - 1978 (2019), FLAC (tracks+.cue), lossless


Статистика раздачи
Размер: 205.5 МБ | Добавлен: 09 ноя 2019, 12:41 | Скачали: 1
Сидеров: 3  [0 байт/сек]    Личеров: 0  [0 байт/сек]

Сообщение Гость » 09 ноя 2019, 12:41

Atlantis - Top Of The Bill
Жанр: Prog Rock
Страна-производитель диска: RU (Unofficial Release)
Год издания диска: 2019
Издатель (лейбл): Venus
Номер по каталогу: V78 AT-F1002
Страна: Germany
Аудиокодек: FLAC (*.flac)
Тип рипа: tracks+.cue
Битрейт аудио: lossless
Продолжительность: 00:35:00
Источник (релизер): Sket4er
Наличие сканов в содержимом раздачи: да
Треклист:
01. He's Got A Gun In His Hand
02. Hot Rocks
03. Out Of Tune
04. Don't Put The Lady Down
05. Northern Bounty
06. Haven't You Heard
07. Just Blues (Session)
Tracks 01,02,05 recorded at Dierks-Studios, March 1976
Tracks 03,04,06,07 recorded at Dierks-Studios, December 1975
Код: Выделить всё
Exact Audio Copy V1.3 from 2. September 2016
EAC extraction logfile from 6. November 2019, 15:39
Atlantis / Top Of The Bill
Used drive  : ASUS    DRW-24D5MT   Adapter: 1  ID: 0
Read mode               : Secure
Utilize accurate stream : Yes
Defeat audio cache      : Yes
Make use of C2 pointers : No
Read offset correction                      : 6
Overread into Lead-In and Lead-Out          : No
Fill up missing offset samples with silence : Yes
Delete leading and trailing silent blocks   : No
Null samples used in CRC calculations       : Yes
Used interface                              : Native Win32 interface for Win NT & 2000
Gap handling                                : Appended to previous track
Used output format              : User Defined Encoder
Selected bitrate                : 1024 kBit/s
Quality                         : High
Add ID3 tag                     : No
Command line compressor         : C:\Program Files (x86)\Exact Audio Copy\Flac\flac.exe
Additional command line options :  -V -8 -T "Genre=%genre%" -T "Artist=%artist%" -T "Title=%title%" -T "Album=%albumtitle%" -T "Date=%year%" -T "Tracknumber=%tracknr%" -T "Comment=%comment%" %source%
TOC of the extracted CD
     Track |   Start  |  Length  | Start sector | End sector
    ---------------------------------------------------------
        1  |  0:00.00 |  4:16.17 |         0    |    19216
        2  |  4:16.17 |  2:56.15 |     19217    |    32431
        3  |  7:12.32 |  3:26.00 |     32432    |    47881
        4  | 10:38.32 |  3:20.62 |     47882    |    62943
        5  | 13:59.19 |  4:02.34 |     62944    |    81127
        6  | 18:01.53 |  5:29.59 |     81128    |   105861
        7  | 23:31.37 | 11:28.11 |    105862    |   157472
Track  1
     Filename H:\Sket4er\Atlantis – Top Of The Bill (1978)  2019\01 He's Got A Gun In His Hand.wav
     Pre-gap length  0:00:02.00
     Peak level 97.2 %
     Extraction speed 1.2 X
     Track quality 100.0 %
     Test CRC A1F3B374
     Copy CRC A1F3B374
     Track not present in AccurateRip database
     Copy OK
Track  2
     Filename H:\Sket4er\Atlantis – Top Of The Bill (1978)  2019\02 Hot Rocks.wav
     Peak level 98.3 %
     Extraction speed 1.2 X
     Track quality 100.0 %
     Test CRC 21199422
     Copy CRC 21199422
     Track not present in AccurateRip database
     Copy OK
Track  3
     Filename H:\Sket4er\Atlantis – Top Of The Bill (1978)  2019\03 Out Of Tune.wav
     Peak level 100.0 %
     Extraction speed 1.3 X
     Track quality 100.0 %
     Test CRC 54D0A0C0
     Copy CRC 54D0A0C0
     Track not present in AccurateRip database
     Copy OK
Track  4
     Filename H:\Sket4er\Atlantis – Top Of The Bill (1978)  2019\04 Don't Put The Lady Down.wav
     Peak level 99.9 %
     Extraction speed 1.2 X
     Track quality 99.9 %
     Test CRC 014D3A8B
     Copy CRC 014D3A8B
     Track not present in AccurateRip database
     Copy OK
Track  5
     Filename H:\Sket4er\Atlantis – Top Of The Bill (1978)  2019\05 Northern Bounty.wav
     Peak level 100.0 %
     Extraction speed 1.5 X
     Track quality 100.0 %
     Test CRC 341EBDAF
     Copy CRC 341EBDAF
     Track not present in AccurateRip database
     Copy OK
Track  6
     Filename H:\Sket4er\Atlantis – Top Of The Bill (1978)  2019\06 Haven't You Heard.wav
     Peak level 99.7 %
     Extraction speed 1.7 X
     Track quality 100.0 %
     Test CRC 7EB9857A
     Copy CRC 7EB9857A
     Track not present in AccurateRip database
     Copy OK
Track  7
     Filename H:\Sket4er\Atlantis – Top Of The Bill (1978)  2019\07 Just Blues (Session).wav
     Peak level 100.0 %
     Extraction speed 1.9 X
     Track quality 100.0 %
     Test CRC 5D3AEF42
     Copy CRC 5D3AEF42
     Track not present in AccurateRip database
     Copy OK
None of the tracks are present in the AccurateRip database
No errors occurred
End of status report
---- CUETools DB Plugin V2.1.6
[CTDB TOCID: hfIZjheiIhiKAzTe6PY5qm8w1dg-] disk not present in database
Submit result: hfIZjheiIhiKAzTe6PY5qm8w1dg- has been uploaded
==== Log checksum BF45A65B60A7FF574D567601798F8FCF8663C3DAC909B0C92D7AA5B1C455DA09 ====
Код: Выделить всё
REM GENRE "Progressive Rock"
REM DATE 1978
REM DISCID 48083307
REM COMMENT "ExactAudioCopy v1.3"
PERFORMER "Atlantis"
TITLE "Top Of The Bill "
REM COMPOSER ""
FILE "01 He's Got A Gun In His Hand.wav" WAVE
  TRACK 01 AUDIO
    TITLE "He's Got A Gun In His Hand"
    PERFORMER "Atlantis"
    REM COMPOSER ""
    FLAGS DCP
    INDEX 01 00:00:00
FILE "02 Hot Rocks.wav" WAVE
  TRACK 02 AUDIO
    TITLE "Hot Rocks"
    PERFORMER "Atlantis"
    REM COMPOSER ""
    FLAGS DCP
    INDEX 01 00:00:00
FILE "03 Out Of Tune.wav" WAVE
  TRACK 03 AUDIO
    TITLE "Out Of Tune"
    PERFORMER "Atlantis"
    REM COMPOSER ""
    FLAGS DCP
    INDEX 01 00:00:00
FILE "04 Don't Put The Lady Down.wav" WAVE
  TRACK 04 AUDIO
    TITLE "Don't Put The Lady Down"
    PERFORMER "Atlantis"
    REM COMPOSER ""
    FLAGS DCP
    INDEX 01 00:00:00
FILE "05 Northern Bounty.wav" WAVE
  TRACK 05 AUDIO
    TITLE "Northern Bounty"
    PERFORMER "Atlantis"
    REM COMPOSER ""
    FLAGS DCP
    INDEX 01 00:00:00
FILE "06 Haven't You Heard.wav" WAVE
  TRACK 06 AUDIO
    TITLE "Haven't You Heard"
    PERFORMER "Atlantis"
    REM COMPOSER ""
    FLAGS DCP
    INDEX 01 00:00:00
FILE "07 Just Blues (Session).wav" WAVE
  TRACK 07 AUDIO
    TITLE "Just Blues (Session)"
    PERFORMER "Atlantis"
    REM COMPOSER ""
    FLAGS DCP
    INDEX 01 00:00:00
Код: Выделить всё
-----------------------
DON'T MODIFY THIS FILE
-----------------------
PERFORMER: auCDtect Task Manager, ver. 1.5.1RC4 build 1.5.1.5
Copyright (c) 2008-2010 y-soft. All rights reserved
[url=http://y-soft.org]http://y-soft.org[/url]
ANALYZER: auCDtect: CD records authenticity detector, version 0.8.2
Copyright (c) 2004 Oleg Berngardt. All rights reserved.
Copyright (c) 2004 Alexander Djourik. All rights reserved.
FILE: 07 Just Blues (Session).flac
  Size: 60344781 Hash: 243BA100BD323A4FAB9064126EFC1EB7 Accuracy: -m0
  Conclusion: CDDA 100%
  Signature: 3AF264788CF658AEF278ACFD96C57D99BCB9605D
FILE: 06 Haven't You Heard.flac
  Size: 36300446 Hash: 23225B8B44B5C83A6E1358C530EC2DFF Accuracy: -m0
  Conclusion: CDDA 100%
  Signature: 74CC14AAF89B86676A7553E2B52A606D1CDAF260
FILE: 05 Northern Bounty.flac
  Size: 26678512 Hash: 516D0CB42C98E17650FF8FAC071E8C3D Accuracy: -m0
  Conclusion: CDDA 100%
  Signature: D69A3D4F48665EE71A9F271674F8A516355F2194
FILE: 04 Don't Put The Lady Down.flac
  Size: 20618520 Hash: 7F2B135F757827854AD7546D45AC429E Accuracy: -m0
  Conclusion: CDDA 99%
  Signature: C23301DC28536AEF7EA8135FBD86B24CF6C143A4
FILE: 03 Out Of Tune.flac
  Size: 18375835 Hash: 29D26B654D7E8B5586DA82579A47D92C Accuracy: -m0
  Conclusion: CDDA 100%
  Signature: 4098359A614B430282CF5A4FC089F1272661866B
FILE: 02 Hot Rocks.flac
  Size: 22243196 Hash: BA8DEF729C588475B0E41B5A9EA79E80 Accuracy: -m0
  Conclusion: CDDA 100%
  Signature: 3A62EB90A320ECFAFB92DDDB617D739C5C7E0908
FILE: 01 He's Got A Gun In His Hand.flac
  Size: 28812864 Hash: E2F5FEA0A6A3E051D9CE6A1BE0FD0B45 Accuracy: -m0
  Conclusion: CDDA 100%
  Signature: 9844BCA1433C262427F057CEE58776D77CF50BC4
Код: Выделить всё
[CUETools log; Date: 08.11.2019 11:00:36; Version: 2.1.6]
[CTDB TOCID: hfIZjheiIhiKAzTe6PY5qm8w1dg-] found.
Track | CTDB Status
  1   | (1/1) Accurately ripped
  2   | (1/1) Accurately ripped
  3   | (1/1) Accurately ripped
  4   | (1/1) Accurately ripped
  5   | (1/1) Accurately ripped
  6   | (1/1) Accurately ripped
  7   | (1/1) Accurately ripped
[AccurateRip ID: 0007bc3a-002fc0dd-48083307] disk not present in database.
Track Peak [ CRC32  ] [W/O NULL] [  LOG   ]
 --  100,0 [E72292DD] [158B7DFC]
 01   97,2 [A1F3B374] [304815F9]   CRC32
 02   98,3 [21199422] [095418F5]   CRC32
 03  100,0 [54D0A0C0] [1B669952]   CRC32
 04   99,9 [014D3A8B] [B4CBE655]   CRC32
 05  100,0 [341EBDAF] [70CF121C]   CRC32
 06   99,7 [7EB9857A] [936DFC50]   CRC32
 07  100,0 [5D3AEF42] [F981B129]   CRC32
Код: Выделить всё
foobar2000 1.3.9 / Замер динамического диапазона (DR) 1.1.1
Дата отчёта:  2019-11-08 14:03:11
--------------------------------------------------------------------------------
Анализ:   Atlantis / Top Of The Bill
--------------------------------------------------------------------------------
DR         Пики         RMS           Продолжительность трека
--------------------------------------------------------------------------------
DR11      -0.25 дБ   -14.15 дБ      4:16 01-He's Got A Gun In His Hand
DR10      -0.14 дБ   -12.30 дБ      2:56 02-Hot Rocks
DR10       0.00 дБ   -13.99 дБ      3:26 03-Out Of Tune
DR11      -0.01 дБ   -12.86 дБ      3:21 04-Don't Put The Lady Down
DR12       0.00 дБ   -14.35 дБ      4:02 05-Northern Bounty
DR11      -0.02 дБ   -13.85 дБ      5:30 06-Haven't You Heard
DR14       0.00 дБ   -17.39 дБ     11:28 07-Just Blues (Session)
--------------------------------------------------------------------------------
Количество треков: 7
Реальные значения DR: DR11
Частота:   44100 Гц
Каналов:   2
Разрядность:   16
Битрейт:   700 кбит/с
Кодек:   FLAC
================================================================================
Доп. информация
Adrian Askew - Keyboards
Inga Rumpf - Vocals
Frank Diez - Lead Guitar
Rainer Marz - Rhythm Guitar
Karl-Heinz Schott - Bass
Ringo Funk - Drums
German rock band, founded summer 1972 out of Frumpy by Inga Rumpf, Jean-Jacques Kravetz & Karl-Heinz Schott; Initially completed with Frank Diez and Curt Cress. They were replaced by George Meier and Udo Lindenberg for the tour that followed after the first album Atlantis was recorded. After the tour Dieter Bornschlegel and Ringo Funk joined the band to replace them.
After the tour for the second album It's Getting Better Kravetz left the band to be shortly replaced by Reiner Schnelle and later in 1974 by Adrian Askew. At that time also Alex Conti joined to replace Bornschlegel.
After the third album Ooh, Baby Frank Diez returned replacing Conti and a second guitar player Rainer Marz joined.
Atlantis was disbanded January 1976, but still some recordings were made in March.
February 23, 1983 Atlantis held a reunion concert in Hamburg with the founding members.
https://www.discogs.com/artist/393500-Atlantis-12
Правила, инструкции, FAQ!!!
Торрент  Добавлен [09 ноя 2019, 12:41] Скачать торрент Магнет ссылка
Скачать торрент
17.39 КБ

Статус
Проверен 
 
Размер  205.5 МБ
Приватный: Нет (DHT включён)
.torrent скачан  1
Как залить торрент? | Как скачать Torrent? | Как смотреть и слушать онлайн?  
Гость
 


Вернуться в Progressive & Art-Rock

Кто сейчас на конференции

Сейчас этот форум просматривают: нет зарегистрированных пользователей и гости: 0