(Prog Rock) [CD] Chrome Hoof - Chrome Black Gold - 2013, WavPack (image+.cue), lossless


Статистика раздачи
Размер: 366.81 МБ | Добавлен: 09 ноя 2019, 12:39 | Скачали: 0
Сидеров: 0  [0 байт/сек]    Личеров: 0  [0 байт/сек]

Сообщение Гость » 09 ноя 2019, 12:39

Chrome Hoof / Chrome Black Gold
Жанр: Prog Rock
Носитель: CD
Страна-производитель диска (релиза): US
Год издания: 2013
Издатель (лейбл): Cuneiform Records
Номер по каталогу: Rune 369
Аудиокодек: WavPack (*.wv)
Тип рипа: image+.cue
Продолжительность: 00:41:13
Источник: локальная сеть
Наличие сканов в содержимом раздачи: да
Треклист:
1 Enter The Drobe 3:36
2 Knopheria 4:21
3 When The Lightning Strikes 5:12
4 Kestrel Dawn 1:48
5 Tortured Craft 4:02
6 Ultimate Sealed Unit 5:46
7 Exo-Spektral 4:10
8 Andromeda 2:52
9 Dysnomia 1:32
10 Varkada Blues 6:02
11 Drobe Out 1:52
Код: Выделить всё
Exact Audio Copy V1.0 beta 3 from 29. August 2011
EAC extraction logfile from 20. September 2013, 1:55
Chrome Hoof / Chrome Black Gold
Used drive  : PIONEER DVD-RW DVR-220RS   Adapter: 0  ID: 0
Read mode               : Secure
Utilize accurate stream : Yes
Defeat audio cache      : Yes
Make use of C2 pointers : No
Read offset correction                      : 6
Overread into Lead-In and Lead-Out          : No
Fill up missing offset samples with silence : Yes
Delete leading and trailing silent blocks   : No
Null samples used in CRC calculations       : Yes
Used interface                              : Native Win32 interface for Win NT & 2000
Used output format              : User Defined Encoder
Selected bitrate                : 128 kBit/s
Quality                         : High
Add ID3 tag                     : No
Command line compressor         : C:\Program Files (x86)\Exact Audio Copy\Wavpack\wavpack.exe
Additional command line options : -hlm %source% %dest%
TOC of the extracted CD
     Track |   Start  |  Length  | Start sector | End sector
    ---------------------------------------------------------
        1  |  0:00.00 |  3:36.30 |         0    |    16229
        2  |  3:36.30 |  4:20.50 |     16230    |    35779
        3  |  7:57.05 |  5:12.01 |     35780    |    59180
        4  | 13:09.06 |  1:48.21 |     59181    |    67301
        5  | 14:57.27 |  4:02.15 |     67302    |    85466
        6  | 18:59.42 |  5:46.22 |     85467    |   111438
        7  | 24:45.64 |  4:09.73 |    111439    |   130186
        8  | 28:55.62 |  2:51.42 |    130187    |   143053
        9  | 31:47.29 |  1:32.15 |    143054    |   149968
       10  | 33:19.44 |  6:02.03 |    149969    |   177121
       11  | 39:21.47 |  1:51.43 |    177122    |   185489
Range status and errors
Selected range
     Filename C:\NL+ byTATUK\CD01\Chrome Hoof - Chrome Black Gold.wav
     Peak level 100.0 %
     Extraction speed 7.1 X
     Range quality 100.0 %
     Test CRC 7B065B30
     Copy CRC 7B065B30
     Copy OK
No errors occurred
AccurateRip summary
Track  1  not present in database
Track  2  not present in database
Track  3  not present in database
Track  4  not present in database
Track  5  not present in database
Track  6  not present in database
Track  7  not present in database
Track  8  not present in database
Track  9  not present in database
Track 10  not present in database
Track 11  not present in database
None of the tracks are present in the AccurateRip database
End of status report
---- CUETools DB Plugin V2.1.3
[CTDB TOCID: pQmGEEMSxWpp4qkOYgwXn66vVmE-] disk not present in database, Submit result: pQmGEEMSxWpp4qkOYgwXn66vVmE- has been uploaded
==== Log checksum 0F0BDD41B8AD2CD81A567C957FFAB9E31D3DFB8F293D263B602842CFE5624B27 ====
Код: Выделить всё
REM GENRE "Progressive Rock"
REM DATE 2013
REM DISCID 9D09A90B
REM COMMENT "ExactAudioCopy v1.0b3"
PERFORMER "Chrome Hoof"
TITLE "Chrome Black Gold"
FILE "Chrome Hoof - Chrome Black Gold 2013.wv" WAVE
  TRACK 01 AUDIO
    TITLE "Enter The Drobe"
    PERFORMER "Chrome Hoof"
    INDEX 01 00:00:00
  TRACK 02 AUDIO
    TITLE "Knopheria"
    PERFORMER "Chrome Hoof"
    INDEX 01 03:36:30
  TRACK 03 AUDIO
    TITLE "When The Lightning Strikes"
    PERFORMER "Chrome Hoof"
    INDEX 01 07:57:05
  TRACK 04 AUDIO
    TITLE "Kestrel Dawn"
    PERFORMER "Chrome Hoof"
    INDEX 01 13:09:06
  TRACK 05 AUDIO
    TITLE "Tortured Craft"
    PERFORMER "Chrome Hoof"
    INDEX 00 14:55:26
    INDEX 01 14:57:27
  TRACK 06 AUDIO
    TITLE "Ultimate Sealed Unit"
    PERFORMER "Chrome Hoof"
    INDEX 01 18:59:42
  TRACK 07 AUDIO
    TITLE "Exo-Spektral"
    PERFORMER "Chrome Hoof"
    INDEX 00 24:45:24
    INDEX 01 24:45:64
  TRACK 08 AUDIO
    TITLE "Andromeda"
    PERFORMER "Chrome Hoof"
    INDEX 01 28:55:62
  TRACK 09 AUDIO
    TITLE "Dysnomia"
    PERFORMER "Chrome Hoof"
    INDEX 01 31:47:29
  TRACK 10 AUDIO
    TITLE "Varkada Blues"
    PERFORMER "Chrome Hoof"
    INDEX 01 33:19:44
  TRACK 11 AUDIO
    TITLE "Drobe Out"
    PERFORMER "Chrome Hoof"
    INDEX 00 39:19:46
    INDEX 01 39:21:47
Правила, инструкции, FAQ!!!
Торрент  Добавлен [09 ноя 2019, 12:39] Скачать торрент Магнет ссылка
Скачать торрент
15.31 КБ

Статус
Проверен 
 
Размер  366.81 МБ
Приватный: Нет (DHT включён)
.torrent скачан  0
Как залить торрент? | Как скачать Torrent? | Как смотреть и слушать онлайн?  
Гость
 


Вернуться в Progressive & Art-Rock

Кто сейчас на конференции

Сейчас этот форум просматривают: нет зарегистрированных пользователей и гости: 3