(Prog Rock) [CD] Circus Brimstone - Live - Brimstoned In Europe - 2005, FLAC (image+.cue), lossless


Статистика раздачи
Размер: 413.53 МБ | Добавлен: 09 ноя 2019, 12:39 | Скачали: 0
Сидеров: 0  [0 байт/сек]    Личеров: 0  [0 байт/сек]

Сообщение Гость » 09 ноя 2019, 12:39

Circus Brimstone / Live - Brimstoned In Europe
Жанр: Prog Rock
Носитель: CD
Страна-производитель диска (релиза): Sweden
Год издания: 2005
Издатель (лейбл): Foxtrot Records
Номер по каталогу: FOX CD 026
Аудиокодек: FLAC (*.flac)
Тип рипа: image+.cue
Продолжительность: 01:00:18
Источник: локальная сеть
Наличие сканов в содержимом раздачи: да
Треклист:
1 Cosmic Lodge 5:57
2 Astral Dog / Hellhound 13:11
3 Circus Brimstone 15:11
4 The Man Who Walked With Kings 5:16
5 Magic Circus Of Zeb 7:47
6 Speed Wizard/ Drumsolo 6:43
7 Retropolis 6:02
Код: Выделить всё
Exact Audio Copy V1.0 beta 3 from 29. August 2011
Отчёт EAC об извлечении, выполненном 28. января 2014, 7:35
Circus Brimstone / Brimstoned In Europe
Дисковод: TSSTcorpCDDVDW SH-224DB   Adapter: 1  ID: 0
Режим чтения                 : Достоверность
Использование точного потока : Да
Отключение кэша аудио        : Да
Использование указателей C2  : Нет
Коррекция смещения при чтении                     : 6
Способность читать области Lead-in и Lead-out     : Нет
Заполнение пропущенных сэмплов тишиной            : Да
Удаление блоков с тишиной в начале и конце        : Нет
При вычислениях CRC использовались нулевые сэмплы : Да
Интерфейс                                         : Встроенный Win32-интерфейс для Win NT/2000
Выходной формат          : Пользовательский кодировщик
Выбранный битрейт        : 768 kBit/s
Качество                 : Высокий
Добавление ID3-тега      : Нет
Утилита сжатия           : C:\Program Files\Exact Audio Copy\Flac\flac.exe
Дополнительные параметры : -V -8 -T "Date=%year%" -T "Genre=%genre%" %source%
TOC извлечённого CD
     Трек |   Старт  | Длительность | Начальный сектор | Конечный сектор
    ---------------------------------------------------------------------
       1  |  0:00.00 |    5:57.62   |           0      |      26836
       2  |  5:57.62 |   13:11.46   |       26837      |      86207
       3  | 19:09.33 |   15:11.61   |       86208      |     154593
       4  | 34:21.19 |    5:17.06   |      154594      |     178374
       5  | 39:38.25 |    7:47.29   |      178375      |     213428
       6  | 47:25.54 |    6:49.18   |      213429      |     244121
       7  | 54:14.72 |    6:03.69   |      244122      |     271415
Характеристики диапазона извлечения и сообщения об ошибках
Выбранный диапазон
     Имя файла D:\lo$$le$$\circus brimstone'05\Circus Brimstone - Brimstoned In Europe.wav
     Пиковый уровень 99.8 %
     Скорость извлечения 7.6 X
     Качество диапазона 100.0 %
     CRC теста 2680C6F7
     CRC копии 2680C6F7
     Копирование... OK
Ошибок не произошло
Конец отчёта
==== Контрольная сумма отчёта D893B4C58171917ED66322D8712A272D249C27C3F5F6181DD80B5013EB30FA67 ====
Код: Выделить всё
REM DATE 2005
REM DISCID 580E2207
REM COMMENT "ExactAudioCopy v1.0b3"
PERFORMER "Circus Brimstone"
TITLE "Brimstoned In Europe"
FILE "Circus Brimstone - Brimstoned In Europe.flac" WAVE
  TRACK 01 AUDIO
    TITLE "Cosmic Lodge"
    PERFORMER "Circus Brimstone"
    FLAGS DCP
    INDEX 01 00:00:00
  TRACK 02 AUDIO
    TITLE "Astral Dog / Hellhound"
    PERFORMER "Circus Brimstone"
    FLAGS DCP
    INDEX 01 05:57:62
  TRACK 03 AUDIO
    TITLE "Circus Brimstone"
    PERFORMER "Circus Brimstone"
    FLAGS DCP
    INDEX 01 19:09:33
  TRACK 04 AUDIO
    TITLE "The Man Who Walked With Kings"
    PERFORMER "Circus Brimstone"
    FLAGS DCP
    INDEX 01 34:21:19
  TRACK 05 AUDIO
    TITLE "Magic Circus Of Zeb"
    PERFORMER "Circus Brimstone"
    FLAGS DCP
    INDEX 01 39:38:25
  TRACK 06 AUDIO
    TITLE "Speed Wizard / Drumsolo"
    PERFORMER "Circus Brimstone"
    FLAGS DCP
    INDEX 01 47:25:54
  TRACK 07 AUDIO
    TITLE "Retropolis"
    PERFORMER "Circus Brimstone"
    FLAGS DCP
    INDEX 01 54:14:72
Правила, инструкции, FAQ!!!
Торрент  Добавлен [09 ноя 2019, 12:39] Скачать торрент Магнет ссылка
Скачать торрент
17.15 КБ

Статус
Проверен 
 
Размер  413.53 МБ
Приватный: Нет (DHT включён)
.torrent скачан  0
Как залить торрент? | Как скачать Torrent? | Как смотреть и слушать онлайн?  
Гость
 


Вернуться в Progressive & Art-Rock

Кто сейчас на конференции

Сейчас этот форум просматривают: нет зарегистрированных пользователей и гости: 1