(Prog Rock, Fusion) [CD] Cheiro De Vida - 1988 - Vivo - 2000, APE (image+.cue), lossless


Статистика раздачи
Размер: 382 МБ | Добавлен: 09 ноя 2019, 12:39 | Скачали: 0
Сидеров: 1  [0 байт/сек]    Личеров: 0  [0 байт/сек]

Сообщение Гость » 09 ноя 2019, 12:39

Cheiro De Vida / 1988 - Vivo
Жанр: Prog Rock, Fusion
Носитель: CD
Страна-производитель диска (релиза): Brazil
Год издания: 2000
Издатель (лейбл): Not On Label ‎
Номер по каталогу: CV-001
Аудиокодек: APE (*.ape)
Тип рипа: image+.cue
Продолжительность: 00:56:31
Источник: локальная сеть
Наличие сканов в содержимом раздачи: да
Треклист:
1. Africa (4:16)
2. Levada (3:32)
3. Vox Populi (4:05)
4. Jazz (3:31)
5. Blue (8:16)
6. Beep Bop (5:51)
7. Vinheta (2:03)
8. Dark Funk (5:37)
9. Intro (1:38)
10. Funk Indiano (3:35)
11. Rush (3:25)
12. Guerra (7:24)
Bonus track
13. Jazzmania (2:14)
Total Time 56:31
Line-Up:
- Andre Gomes / bass
- Carlos Martau / guitar, krika
- Alexandre Fonseca / drums
Код: Выделить всё
Exact Audio Copy V0.99 prebeta 1 from 25. May 2007
EAC extraction logfile from 30. December 2009, 15:27
1988 Vivo / Cheiro De Vida
Used drive  : HL-DT-STDVD-RAM GSA-H58N   Adapter: 0  ID: 1
Read mode               : Secure
Utilize accurate stream : Yes
Defeat audio cache      : Yes
Make use of C2 pointers : No
Read offset correction                      : 102
Overread into Lead-In and Lead-Out          : Yes
Fill up missing offset samples with silence : Yes
Delete leading and trailing silent blocks   : No
Used interface                              : Native Win32 interface for Win NT & 2000
Used output format              : Monkey's Audio Lossless Encoder
Selected bitrate                : Extra High Lossless Compression
Quality                         : High
Add ID3 tag                     : Yes
Command line compressor         : C:\Arquivos de programas\Monkey's Audio\MAC.exe
TOC of the extracted CD
     Track |   Start  |  Length  | Start sector | End sector
    ---------------------------------------------------------
        1  |  0:00.00 |  4:17.46 |         0    |    19320
        2  |  4:17.46 |  3:34.03 |     19321    |    35373
        3  |  7:51.49 |  4:06.55 |     35374    |    53878
        4  | 11:58.29 |  3:31.10 |     53879    |    69713
        5  | 15:29.39 |  8:17.34 |     69714    |   107022
        6  | 23:46.73 |  5:53.41 |    107023    |   133538
        7  | 29:40.39 |  2:03.54 |    133539    |   142817
        8  | 31:44.18 |  5:38.02 |    142818    |   168169
        9  | 37:22.20 |  1:38.73 |    168170    |   175592
       10  | 39:01.18 |  4:10.45 |    175593    |   194387
       11  | 43:11.63 |  3:27.31 |    194388    |   209943
       12  | 46:39.19 |  7:36.29 |    209944    |   244172
       13  | 54:15.48 |  2:16.21 |    244173    |   254393
Range status and errors
Selected range
     Filename C:\0 musica\torrent.ru up\1988 Vivo.wav
     Peak level 97.7 %
     Range quality 99.9 %
     Test CRC B0CC8468
     Copy CRC B0CC8468
     Copy OK
No errors occurred
End of status report
Код: Выделить всё
REM GENRE Fusion
REM DATE 1988
REM DISCID AE0D3F0D
REM COMMENT "ExactAudioCopy v0.99pb1"
PERFORMER "1988 Vivo"
TITLE "Cheiro De Vida"
FILE "1988 Vivo.ape" WAVE
  TRACK 01 AUDIO
    TITLE "Africa"
    PERFORMER "1988 Vivo"
    FLAGS DCP
    INDEX 01 00:00:00
  TRACK 02 AUDIO
    TITLE "Levada "
    PERFORMER "1988 Vivo"
    FLAGS DCP
    INDEX 01 04:17:46
  TRACK 03 AUDIO
    TITLE "Vox Populi"
    PERFORMER "1988 Vivo"
    FLAGS DCP
    INDEX 01 07:51:49
  TRACK 04 AUDIO
    TITLE "Jazz"
    PERFORMER "1988 Vivo"
    FLAGS DCP
    INDEX 01 11:58:29
  TRACK 05 AUDIO
    TITLE "Blue"
    PERFORMER "1988 Vivo"
    FLAGS DCP
    INDEX 01 15:29:39
  TRACK 06 AUDIO
    TITLE "Beep Bop"
    PERFORMER "1988 Vivo"
    FLAGS DCP
    INDEX 01 23:46:73
  TRACK 07 AUDIO
    TITLE "Vinheta"
    PERFORMER "1988 Vivo"
    FLAGS DCP
    INDEX 01 29:40:39
  TRACK 08 AUDIO
    TITLE "Dark Funk"
    PERFORMER "1988 Vivo"
    FLAGS DCP
    INDEX 01 31:44:18
  TRACK 09 AUDIO
    TITLE "Intro"
    PERFORMER "1988 Vivo"
    FLAGS DCP
    INDEX 01 37:22:20
  TRACK 10 AUDIO
    TITLE "Funk Indiano"
    PERFORMER "1988 Vivo"
    FLAGS DCP
    INDEX 01 39:01:18
  TRACK 11 AUDIO
    TITLE "Rush"
    PERFORMER "1988 Vivo"
    FLAGS DCP
    INDEX 01 43:11:63
  TRACK 12 AUDIO
    TITLE "Guerra"
    PERFORMER "1988 Vivo"
    FLAGS DCP
    INDEX 01 46:39:19
  TRACK 13 AUDIO
    TITLE "Jazzmania "
    PERFORMER "1988 Vivo"
    FLAGS DCP
    INDEX 00 54:12:48
    INDEX 01 54:15:48
Правила, инструкции, FAQ!!!
Торрент  Добавлен [09 ноя 2019, 12:39] Скачать торрент Магнет ссылка
Скачать торрент
15.8 КБ

Статус
Проверен 
 
Размер  382 МБ
Приватный: Нет (DHT включён)
.torrent скачан  0
Как залить торрент? | Как скачать Torrent? | Как смотреть и слушать онлайн?  
Гость
 


Вернуться в Progressive & Art-Rock

Кто сейчас на конференции

Сейчас этот форум просматривают: нет зарегистрированных пользователей и гости: 3