(Prog Rock) [CDR] Ten Point Ten - Cartography - 2000, FLAC (image+.cue), lossless


Статистика раздачи
Размер: 434.5 МБ | Добавлен: 09 ноя 2019, 12:41 | Скачали: 0
Сидеров: 0  [0 байт/сек]    Личеров: 0  [0 байт/сек]

Сообщение Гость » 09 ноя 2019, 12:41

Ten Point Ten / Cartography
Жанр: Prog Rock
Носитель: CDR
Год издания: 2000
Издатель (лейбл): Not On Label ‎
Аудиокодек: FLAC (*.flac)
Тип рипа: image+.cue
Продолжительность: 01:08:49
Источник: erro
Наличие сканов в содержимом раздачи: нет
Треклист:
1 E
2 Fuel Me
3 Prodigal
4 Just Another Day?
5 A Promise Of Love
6 Follow Me
7 The Long Way Home
8 Waiting
9 All Loved
10 Back To Where You've Been
11 Believe
12 The Nazarene
13 Peace
14 Exodus
Код: Выделить всё
Exact Audio Copy V1.3 from 2. September 2016
EAC atskaite par izvilkšanu, izpildīta 11. novembrī 2016, 18:35
Ten Point Ten / Cartography
Diskierīce: PLEXTOR CD-R   PX-W1610A   Adapter: 1  ID: 1
Lasīšanas režīms             : Drošība
Precīzas plūsmas izmantošana : Jā
Audio keša atslēgšana        : Jā
C2 norāžu izmantošana        : Nē
Pārvirzes korekcija pie lasīšanas            : 99
Spēja lasīt Lead-in un Lead-out rajonus      : Jā
Izlaisto semplu aizpildīšana ar klusumu      : Jā
Klusuma bloku izmešana sākumā un beigās      : Nē
Izskaitļojot CRC tika izmantoti nuļļu sempli : Jā
Interfeiss                                   : Iebūvētais Win32-interfeiss Win NT/2000
Izejas formāts        : Lietotāja kodētājs
Izvēlētais bitreits   : 32 kBit/s
Kvalitāte             : Zema
ID3-tega pievienošana : Nē
Saspiešanas utilīta   : C:\Program Files\Exact Audio Copy\Flac\flac.exe
Papildus parametri    : -8 -V -T "ARTIST=%artist%" -T "ALBUM=%albumtitle%" -T "DATE=%year%" -T "GENRE=%genre%" -T "COMMENT=EAC FLAC -8" %source%
TOC izvilktā CD
     Treks |  Starts  |  Ilgums  | Sākuma sektors | Beigu sektors
    --------------------------------------------------------------
        1  |  0:00.00 |  1:07.69 |          0     |      5093
        2  |  1:07.69 |  4:48.42 |       5094     |     26735
        3  |  5:56.36 |  5:15.08 |      26736     |     50368
        4  | 11:11.44 |  4:25.52 |      50369     |     70295
        5  | 15:37.21 |  4:50.38 |      70296     |     92083
        6  | 20:27.59 |  5:17.01 |      92084     |    115859
        7  | 25:44.60 |  5:42.12 |     115860     |    141521
        8  | 31:26.72 |  3:03.51 |     141522     |    155297
        9  | 34:30.48 |  6:10.62 |     155298     |    183109
       10  | 40:41.35 |  7:24.03 |     183110     |    216412
       11  | 48:05.38 |  4:49.06 |     216413     |    238093
       12  | 52:54.44 |  6:36.13 |     238094     |    267806
       13  | 59:30.57 |  5:50.40 |     267807     |    294096
       14  | 65:21.22 |  3:28.24 |     294097     |    309720
Izvilkšanas diapazona raksturojumi un paziņojumi par kļūdām
Izvēlētais diapazons
     Faila vārds C:\Program Files\BitComet\Downloads\Ten Point Ten - Cartography (2000)\Ten Point Ten - Cartography.wav
     Maksimuma līmenis 100.0 %
     Izvilkšanas ātrums 6.8 X
     Diapazona kvalitāte 100.0 %
     CRC kopijas 16C8F329
     Kopēšana... OK
Kļūdas neradās
AccurateRip: pārskats
Treks  1  nav datu bāzē
Treks  2  nav datu bāzē
Treks  3  nav datu bāzē
Treks  4  nav datu bāzē
Treks  5  nav datu bāzē
Treks  6  nav datu bāzē
Treks  7  nav datu bāzē
Treks  8  nav datu bāzē
Treks  9  nav datu bāzē
Treks 10  nav datu bāzē
Treks 11  nav datu bāzē
Treks 12  nav datu bāzē
Treks 13  nav datu bāzē
Treks 14  nav datu bāzē
Neviena treka nav AccurateRip bāzē
Atskaites beigas
==== Atskaites kontrolsumma D20819801A74A7923A38F75B60EF4AC08E4CB2218AB80C6FE0E0AD625A9BBC60 ====
Код: Выделить всё
REM GENRE "Progressive Rock"
REM DATE 2000
REM DISCID E110210E
REM COMMENT "ExactAudioCopy v1.3"
PERFORMER "Ten Point Ten"
TITLE "Cartography"
REM COMPOSER ""
FILE "Ten Point Ten - Cartography.flac" WAVE
  TRACK 01 AUDIO
    TITLE "E"
    PERFORMER "Ten Point Ten"
    REM COMPOSER ""
    INDEX 01 00:00:00
  TRACK 02 AUDIO
    TITLE "Fuel Me"
    PERFORMER "Ten Point Ten"
    REM COMPOSER ""
    INDEX 01 01:07:69
  TRACK 03 AUDIO
    TITLE "Prodigal"
    PERFORMER "Ten Point Ten"
    REM COMPOSER ""
    INDEX 01 05:56:36
  TRACK 04 AUDIO
    TITLE "Just Another Day?"
    PERFORMER "Ten Point Ten"
    REM COMPOSER ""
    INDEX 01 11:11:44
  TRACK 05 AUDIO
    TITLE "A Promise of Love"
    PERFORMER "Ten Point Ten"
    REM COMPOSER ""
    INDEX 01 15:37:21
  TRACK 06 AUDIO
    TITLE "Follow Me"
    PERFORMER "Ten Point Ten"
    REM COMPOSER ""
    INDEX 01 20:27:59
  TRACK 07 AUDIO
    TITLE "The Long Way Home"
    PERFORMER "Ten Point Ten"
    REM COMPOSER ""
    INDEX 01 25:44:60
  TRACK 08 AUDIO
    TITLE "Waiting"
    PERFORMER "Ten Point Ten"
    REM COMPOSER ""
    INDEX 01 31:26:72
  TRACK 09 AUDIO
    TITLE "All Loved"
    PERFORMER "Ten Point Ten"
    REM COMPOSER ""
    INDEX 01 34:30:48
  TRACK 10 AUDIO
    TITLE "Back To Where You've Been"
    PERFORMER "Ten Point Ten"
    REM COMPOSER ""
    INDEX 01 40:41:35
  TRACK 11 AUDIO
    TITLE "Believe"
    PERFORMER "Ten Point Ten"
    REM COMPOSER ""
    INDEX 01 48:05:38
  TRACK 12 AUDIO
    TITLE "The Nazarene"
    PERFORMER "Ten Point Ten"
    REM COMPOSER ""
    INDEX 01 52:54:44
  TRACK 13 AUDIO
    TITLE "Peace"
    PERFORMER "Ten Point Ten"
    REM COMPOSER ""
    INDEX 01 59:30:57
  TRACK 14 AUDIO
    TITLE "Exodus"
    PERFORMER "Ten Point Ten"
    REM COMPOSER ""
    INDEX 01 65:21:22
Код: Выделить всё
AUDIOCHECKER v1.2 - by Dester - opdester@freemail.hu
~~~~~~~~~~~~~~~~~
1 -===- C:\Program Files\BitComet\Downloads\Ten Point Ten - Cartography (2000)\Ten Point Ten - Cartography.flac
  Extracted successfully
  Conclusion: This track looks like CDDA with probability 99%
Правила, инструкции, FAQ!!!
Торрент  Добавлен [09 ноя 2019, 12:41] Скачать торрент Магнет ссылка
Скачать торрент
17.66 КБ

Статус
Проверен 
 
Размер  434.5 МБ
Приватный: Нет (DHT включён)
.torrent скачан  0
Как залить торрент? | Как скачать Torrent? | Как смотреть и слушать онлайн?  
Гость
 


Вернуться в Progressive & Art-Rock

Кто сейчас на конференции

Сейчас этот форум просматривают: нет зарегистрированных пользователей и гости: 4