(Progressive & Art Rock)Jeff Lynne's ELO - From Out Of Nowhere - 2019, FLAC (tracks+.cue), lossless


Статистика раздачи
Размер: 225.65 МБ | Добавлен: 09 ноя 2019, 12:39 | Скачали: 0
Сидеров: 0  [0 байт/сек]    Личеров: 0  [0 байт/сек]

Сообщение Гость » 09 ноя 2019, 12:39


Jeff Lynne's ELO - From Out Of Nowhere - 2019
Жанр: Progressive, Art Rock
Страна-производитель диска: USA
Год издания диска: 2019
Издатель (лейбл): Columbia
Номер по каталогу: 19075987112
Страна:UK
Аудио кодек: FLAC (*.flac)
Тип рипа: tracks+.cue
Битрейт аудио: lossless
Продолжительность: 32.46:85
Источник (релизер): After what.cd
Наличие сканов в содержимом раздачи: нет

Треклист :
01. From Out Of Nowhere (3:16)
02. Help Yourself (3:15)
03. All My Love (3:07)
04. Down Came The Rain (3:30)
05. Losing You (3:37)
06. One More Time (3:29)
07. Sci-Fi Woman (3:07)
08. Goin' Out On Me (3:09)
09. Time Of Our Life (3:10)
10. Songbird (3:08)
Код: Выделить всё
Exact Audio Copy V1.3 from 2. September 2016
EAC extraction logfile from 2. November 2019, 19:32
Jeff Lynne’s ELO / From out of Nowhere
Used drive  : Optiarc DVD RW AD-7263S   Adapter: 1  ID: 0
Read mode               : Secure
Utilize accurate stream : Yes
Defeat audio cache      : Yes
Make use of C2 pointers : No
Read offset correction                      : 48
Overread into Lead-In and Lead-Out          : No
Fill up missing offset samples with silence : Yes
Delete leading and trailing silent blocks   : No
Null samples used in CRC calculations       : Yes
Used interface                              : Native Win32 interface for Win NT & 2000
Gap handling                                : Appended to previous track
Used output format              : User Defined Encoder
Selected bitrate                : 1024 kBit/s
Quality                         : High
Add ID3 tag                     : No
Command line compressor         : C:\Program Files (x86)\Exact Audio Copy\Flac\flac.exe
Additional command line options : -8 -V -T "ARTIST=%artist%" -T "TITLE=%title%" -T "ALBUM=%albumtitle%" -T "DATE=%year%" -T "TRACKNUMBER=%tracknr%" -T "GENRE=%genre%" -T "PERFORMER=%albuminterpret%" -T "COMPOSER=%composer%" %haslyrics%--tag-from-file=LYRICS="%lyricsfile%"%haslyrics% -T "ALBUMARTIST=%albumartist%" -T "DISCNUMBER=%cdnumber%" -T "TOTALDISCS=%totalcds%" -T "TOTALTRACKS=%numtracks%" -T "COMMENT=%comment%" %source% -o %dest%
TOC of the extracted CD
     Track |   Start  |  Length  | Start sector | End sector
    ---------------------------------------------------------
        1  |  0:00.00 |  3:15.43 |         0    |    14667
        2  |  3:15.43 |  3:14.39 |     14668    |    29256
        3  |  6:30.07 |  3:06.41 |     29257    |    43247
        4  |  9:36.48 |  3:29.57 |     43248    |    58979
        5  | 13:06.30 |  3:36.70 |     58980    |    75249
        6  | 16:43.25 |  3:28.62 |     75250    |    90911
        7  | 20:12.12 |  3:07.05 |     90912    |   104941
        8  | 23:19.17 |  3:09.16 |    104942    |   119132
        9  | 26:28.33 |  3:10.35 |    119133    |   133417
       10  | 29:38.68 |  3:08.17 |    133418    |   147534
Track  1
     Filename G:\UPLOADS\REDD\Jeff Lynnes ELO - 2019 - From Out Of Nowhere [CD-FLAC]\01 From out of Nowhere.wav
     Pre-gap length  0:00:02.00
     Peak level 100.0 %
     Extraction speed 2.4 X
     Track quality 100.0 %
     Test CRC 8E3D3C00
     Copy CRC 8E3D3C00
     Track not present in AccurateRip database
     Copy OK
Track  2
     Filename G:\UPLOADS\REDD\Jeff Lynnes ELO - 2019 - From Out Of Nowhere [CD-FLAC]\02 Help Yourself.wav
     Pre-gap length  0:00:01.59
     Peak level 100.0 %
     Extraction speed 2.3 X
     Track quality 99.9 %
     Test CRC 79FC9607
     Copy CRC 79FC9607
     Track not present in AccurateRip database
     Copy OK
Track  3
     Filename G:\UPLOADS\REDD\Jeff Lynnes ELO - 2019 - From Out Of Nowhere [CD-FLAC]\03 All My Love.wav
     Pre-gap length  0:00:02.43
     Peak level 100.0 %
     Extraction speed 2.4 X
     Track quality 99.9 %
     Test CRC A5F90257
     Copy CRC A5F90257
     Track not present in AccurateRip database
     Copy OK
Track  4
     Filename G:\UPLOADS\REDD\Jeff Lynnes ELO - 2019 - From Out Of Nowhere [CD-FLAC]\04 Down Came the Rain.wav
     Pre-gap length  0:00:01.64
     Peak level 100.0 %
     Extraction speed 3.0 X
     Track quality 100.0 %
     Test CRC 68784599
     Copy CRC 68784599
     Track not present in AccurateRip database
     Copy OK
Track  5
     Filename G:\UPLOADS\REDD\Jeff Lynnes ELO - 2019 - From Out Of Nowhere [CD-FLAC]\05 Losing You.wav
     Pre-gap length  0:00:01.50
     Peak level 100.0 %
     Extraction speed 3.2 X
     Track quality 100.0 %
     Test CRC 63B4025C
     Copy CRC 63B4025C
     Track not present in AccurateRip database
     Copy OK
Track  6
     Filename G:\UPLOADS\REDD\Jeff Lynnes ELO - 2019 - From Out Of Nowhere [CD-FLAC]\06 One More Time.wav
     Pre-gap length  0:00:01.28
     Peak level 100.0 %
     Extraction speed 2.9 X
     Track quality 99.9 %
     Test CRC 2FC54BDE
     Copy CRC 2FC54BDE
     Track not present in AccurateRip database
     Copy OK
Track  7
     Filename G:\UPLOADS\REDD\Jeff Lynnes ELO - 2019 - From Out Of Nowhere [CD-FLAC]\07 Sci.Fi Woman.wav
     Pre-gap length  0:00:00.56
     Peak level 100.0 %
     Extraction speed 3.4 X
     Track quality 100.0 %
     Test CRC 2F52FEFC
     Copy CRC 2F52FEFC
     Track not present in AccurateRip database
     Copy OK
Track  8
     Filename G:\UPLOADS\REDD\Jeff Lynnes ELO - 2019 - From Out Of Nowhere [CD-FLAC]\08 Goin’ Out on Me.wav
     Pre-gap length  0:00:01.05
     Peak level 99.3 %
     Extraction speed 3.1 X
     Track quality 99.9 %
     Test CRC C35678FA
     Copy CRC C35678FA
     Track not present in AccurateRip database
     Copy OK
Track  9
     Filename G:\UPLOADS\REDD\Jeff Lynnes ELO - 2019 - From Out Of Nowhere [CD-FLAC]\09 Time of Our Life.wav
     Pre-gap length  0:00:00.64
     Peak level 100.0 %
     Extraction speed 3.7 X
     Track quality 100.0 %
     Test CRC 340322A9
     Copy CRC 340322A9
     Track not present in AccurateRip database
     Copy OK
Track 10
     Filename G:\UPLOADS\REDD\Jeff Lynnes ELO - 2019 - From Out Of Nowhere [CD-FLAC]\10 Songbird.wav
     Pre-gap length  0:00:03.57
     Peak level 100.0 %
     Extraction speed 3.3 X
     Track quality 99.9 %
     Test CRC 84E9FAC8
     Copy CRC 84E9FAC8
     Track not present in AccurateRip database
     Copy OK
None of the tracks are present in the AccurateRip database
No errors occurred
End of status report
==== Log checksum C4BF216DD3644696411CF11653931ECBBB8B38BF8C3D7D59D580F24BF1CAFE8A ====
Код: Выделить всё
REM DISCID 7F07AF0A
REM COMMENT "ExactAudioCopy v1.3"
PERFORMER "Jeff Lynne’s ELO"
TITLE "From out of Nowhere"
REM COMPOSER ""
FILE "01 From out of Nowhere.wav" WAVE
  TRACK 01 AUDIO
    TITLE "From out of Nowhere"
    PERFORMER "Jeff Lynne’s ELO"
    REM COMPOSER ""
    INDEX 01 00:00:00
  TRACK 02 AUDIO
    TITLE "Help Yourself"
    PERFORMER "Jeff Lynne’s ELO"
    REM COMPOSER ""
    INDEX 00 03:13:59
FILE "02 Help Yourself.wav" WAVE
    INDEX 01 00:00:00
  TRACK 03 AUDIO
    TITLE "All My Love"
    PERFORMER "Jeff Lynne’s ELO"
    REM COMPOSER ""
    INDEX 00 03:11:71
FILE "03 All My Love.wav" WAVE
    INDEX 01 00:00:00
  TRACK 04 AUDIO
    TITLE "Down Came the Rain"
    PERFORMER "Jeff Lynne’s ELO"
    REM COMPOSER ""
    INDEX 00 03:04:52
FILE "04 Down Came the Rain.wav" WAVE
    INDEX 01 00:00:00
  TRACK 05 AUDIO
    TITLE "Losing You"
    PERFORMER "Jeff Lynne’s ELO"
    REM COMPOSER ""
    INDEX 00 03:28:07
FILE "05 Losing You.wav" WAVE
    INDEX 01 00:00:00
  TRACK 06 AUDIO
    TITLE "One More Time"
    PERFORMER "Jeff Lynne’s ELO"
    REM COMPOSER ""
    INDEX 00 03:35:42
FILE "06 One More Time.wav" WAVE
    INDEX 01 00:00:00
  TRACK 07 AUDIO
    TITLE "Sci.Fi Woman"
    PERFORMER "Jeff Lynne’s ELO"
    REM COMPOSER ""
    INDEX 00 03:28:06
FILE "07 Sci.Fi Woman.wav" WAVE
    INDEX 01 00:00:00
  TRACK 08 AUDIO
    TITLE "Goin’ Out on Me"
    PERFORMER "Jeff Lynne’s ELO"
    REM COMPOSER ""
    INDEX 00 03:06:00
FILE "08 Goin’ Out on Me.wav" WAVE
    INDEX 01 00:00:00
  TRACK 09 AUDIO
    TITLE "Time of Our Life"
    PERFORMER "Jeff Lynne’s ELO"
    REM COMPOSER ""
    INDEX 00 03:08:27
FILE "09 Time of Our Life.wav" WAVE
    INDEX 01 00:00:00
  TRACK 10 AUDIO
    TITLE "Songbird"
    PERFORMER "Jeff Lynne’s ELO"
    REM COMPOSER ""
    INDEX 00 03:06:53
FILE "10 Songbird.wav" WAVE
    INDEX 01 00:00:00
Правила, инструкции, FAQ!!!
Торрент  Добавлен [09 ноя 2019, 12:39] Скачать торрент Магнет ссылка
Скачать торрент
18.72 КБ

Статус
Проверен 
 
Размер  225.65 МБ
Приватный: Нет (DHT включён)
.torrent скачан  0
Как залить торрент? | Как скачать Torrent? | Как смотреть и слушать онлайн?  
Гость
 


Вернуться в Progressive & Art-Rock

Кто сейчас на конференции

Сейчас этот форум просматривают: нет зарегистрированных пользователей и гости: 4