(Progressive Metal/Djent/Instrumental) [CD] Their Dogs Were Astronauts - Earthkeeper - 2015, FLAC (image+.cue), lossless


Статистика раздачи
Размер: 381.55 МБ | Добавлен: 26 май 2019, 13:28 | Скачали: 0
Сидеров: 1  [0 байт/сек]    Личеров: 0  [0 байт/сек]

Сообщение Гость » 26 май 2019, 13:28

Their Dogs Were Astronauts / Earthkeeper

Жанр: Progressive Metal/Djent/Instrumental
Носитель: CD
Год издания: 2015
Издатель (лейбл): Self Released
Страна исполнителя (группы): Austria (Vienna)
Аудиокодек: FLAC (*.flac)
Тип рипа: image+.cue
Продолжительность: 00:56:05
Источник: BACKLASH ( спасибо)
Наличие сканов в содержимом раздачи: да
Треклист:
01. Origins (4:12)
02. Dead End (3:54)
03. Earthkeeper (4:41)
04. Yesterday's Tomorrow (3:47)
05. Coming Into Being (4:42)
06. He Who Saw The Darkness (3:51)
07. He Who Saw The Light (3:08)
08. Checkpoint 4 (4:50)
09. Paradigm (4:59)
10. In Vain (4:42)
11. Section X (5:13)
12. Ashes (4:16)
13. Worn Out Space (3:21)
Код: Выделить всё
Exact Audio Copy V1.3 from 2. September 2016
EAC extraction logfile from 15. April 2019, 20:51
Their Dogs Were Astronauts / Earthkeeper
Used drive  : HL-DT-STDVDRAM GH24NSD1   Adapter: 1  ID: 0
Read mode               : Secure
Utilize accurate stream : Yes
Defeat audio cache      : Yes
Make use of C2 pointers : No
Read offset correction                      : 6
Overread into Lead-In and Lead-Out          : No
Fill up missing offset samples with silence : Yes
Delete leading and trailing silent blocks   : No
Null samples used in CRC calculations       : Yes
Used interface                              : Native Win32 interface for Win NT & 2000
Used output format              : User Defined Encoder
Selected bitrate                : 896 kBit/s
Quality                         : High
Add ID3 tag                     : No
Command line compressor         : C:\Program Files (x86)\Exact Audio Copy\Flac\flac.exe
Additional command line options : -6 -V %source%
TOC of the extracted CD
     Track |   Start  |  Length  | Start sector | End sector
    ---------------------------------------------------------
        1  |  0:00.00 |  4:13.05 |         0    |    18979
        2  |  4:13.05 |  3:56.28 |     18980    |    36707
        3  |  8:09.33 |  4:43.67 |     36708    |    57999
        4  | 12:53.25 |  3:49.66 |     58000    |    75240
        5  | 16:43.16 |  4:44.00 |     75241    |    96540
        6  | 21:27.16 |  3:51.37 |     96541    |   113902
        7  | 25:18.53 |  3:10.43 |    113903    |   128195
        8  | 28:29.21 |  4:52.22 |    128196    |   150117
        9  | 33:21.43 |  5:01.59 |    150118    |   172751
       10  | 38:23.27 |  4:44.00 |    172752    |   194051
       11  | 43:07.27 |  5:15.66 |    194052    |   217742
       12  | 48:23.18 |  4:18.63 |    217743    |   237155
       13  | 52:42.06 |  3:23.05 |    237156    |   252385
Range status and errors
Selected range
     Filename C:\Users\User\Music\EAC\Their Dogs Were Astronauts - Earthkeeper\Their Dogs Were Astronauts - Earthkeeper.wav
     Peak level 100.0 %
     Extraction speed 7.0 X
     Range quality 99.9 %
     Test CRC 2A4D05C9
     Copy CRC 2A4D05C9
     Copy OK
No errors occurred
AccurateRip summary
Track  1  not present in database
Track  2  not present in database
Track  3  not present in database
Track  4  not present in database
Track  5  not present in database
Track  6  not present in database
Track  7  not present in database
Track  8  not present in database
Track  9  not present in database
Track 10  not present in database
Track 11  not present in database
Track 12  not present in database
Track 13  not present in database
None of the tracks are present in the AccurateRip database
End of status report
---- CUETools DB Plugin V2.1.6
[CTDB TOCID: urxmg40ifFQwnjfN8JigFBvJH8k-] disk not present in database
Submit result: urxmg40ifFQwnjfN8JigFBvJH8k- has been uploaded
==== Log checksum F8EAABD8E8274408E5130B6786688F4DCE480C1546E1D132606893B918FCB790 ====
Their Dogs Were Astronauts have created another gem in their new album “Neon Theatre”
For those who aren’t familiar, Their Dogs Were Astronauts are a curiously named, two man band rising up from Salzburg, Austria. Their sound could easily be recommended towards fans of Animals As Leaders, Intervals, TesseracT, and any of the like. To be more specific, these two brothers bring some gnarly Progressive Metal in an instrumental format. Insanely creative guitar playing and complex poly rhythmic drum patterns with stellar production.
They’ve proven to be quite prolific, displaying their abilities damn neat constantly with new releases. So give credit where credit is due and show these guys some support!
https://www.thecirclepit.com
Правила, инструкции, FAQ!!!
Торрент  Добавлен [26 май 2019, 13:28] Скачать торрент Магнет ссылка
Скачать торрент
15.86 КБ

Статус
Проверен 
 
Размер  381.55 МБ
Приватный: Нет (DHT включён)
.torrent скачан  0
Как залить торрент? | Как скачать Torrent? | Как смотреть и слушать онлайн?  
Гость
 



Вернуться в Heavy, Power, Progressive (Metal)

Кто сейчас на конференции

Сейчас этот форум просматривают: нет зарегистрированных пользователей и гости: 0