(Progressive Metal/Djent/Instrumental) [CD] Their Dogs Were Astronauts - Neon Theatre - 2017, FLAC (image+.cue), lossless


Статистика раздачи
Размер: 439.79 МБ | Добавлен: 04 июн 2019, 21:23 | Скачали: 2
Сидеров: 26  [0 байт/сек]    Личеров: 4  [0 байт/сек]

Сообщение Гость » 04 июн 2019, 21:23

Their Dogs Were Astronauts / Neon Theatre

Жанр: Progressive Metal/Djent/Instrumental
Носитель: CD
Год издания: 2017
Издатель (лейбл): Self Released
Страна исполнителя (группы): Austria (Vienna)
Аудиокодек: FLAC (*.flac)
Тип рипа: image+.cue
Продолжительность: 00:01:51
Источник: BACKLASH (спасибо)
Наличие сканов в содержимом раздачи: да
Треклист:
01. Low Life (3:40)
02. Contortionist (5:57)
03. Goldfield (4:13)
04. Seashell (4:50)
05. Phantom (3:43)
06. In Motion (4:28 )
07. Into New Worlds (7:19)
08. Serendipity (5:23)
09. Get Up (5:29)
10. Raw (4:12)
11. Stormwater (4:35)
12. Neon Theatre (3:23)
13. White Feathered Wings (4:35)
Код: Выделить всё
Exact Audio Copy V1.3 from 2. September 2016
EAC extraction logfile from 25. April 2019, 17:57
Their Dogs Were Astronauts / Neon Theatre
Used drive  : HL-DT-STDVDRAM GH24NSD1   Adapter: 1  ID: 0
Read mode               : Secure
Utilize accurate stream : Yes
Defeat audio cache      : Yes
Make use of C2 pointers : No
Read offset correction                      : 6
Overread into Lead-In and Lead-Out          : No
Fill up missing offset samples with silence : Yes
Delete leading and trailing silent blocks   : No
Null samples used in CRC calculations       : Yes
Used interface                              : Native Win32 interface for Win NT & 2000
Used output format              : User Defined Encoder
Selected bitrate                : 896 kBit/s
Quality                         : High
Add ID3 tag                     : No
Command line compressor         : C:\Program Files (x86)\Exact Audio Copy\Flac\flac.exe
Additional command line options : -6 -V %source%
TOC of the extracted CD
     Track |   Start  |  Length  | Start sector | End sector
    ---------------------------------------------------------
        1  |  0:00.00 |  3:40.02 |         0    |    16501
        2  |  3:40.02 |  5:57.59 |     16502    |    43335
        3  |  9:37.61 |  4:13.15 |     43336    |    62325
        4  | 13:51.01 |  4:50.00 |     62326    |    84075
        5  | 18:41.01 |  3:43.02 |     84076    |   100802
        6  | 22:24.03 |  4:28.35 |    100803    |   120937
        7  | 26:52.38 |  7:19.05 |    120938    |   153867
        8  | 34:11.43 |  5:23.31 |    153868    |   178123
        9  | 39:34.74 |  5:29.00 |    178124    |   202798
       10  | 45:03.74 |  4:12.24 |    202799    |   221722
       11  | 49:16.23 |  4:35.66 |    221723    |   242413
       12  | 53:52.14 |  3:23.13 |    242414    |   257651
       13  | 57:15.27 |  4:35.51 |    257652    |   278327
Range status and errors
Selected range
     Filename C:\Users\User\Music\EAC\Their Dogs Were Astronauts - Neon Theatre\Their Dogs Were Astronauts - Neon Theatre.wav
     Peak level 100.0 %
     Extraction speed 1.8 X
     Range quality 100.0 %
     Test CRC 7F1BF514
     Copy CRC 7F1BF514
     Copy OK
No errors occurred
AccurateRip summary
Track  1  not present in database
Track  2  not present in database
Track  3  not present in database
Track  4  not present in database
Track  5  not present in database
Track  6  not present in database
Track  7  not present in database
Track  8  not present in database
Track  9  not present in database
Track 10  not present in database
Track 11  not present in database
Track 12  not present in database
Track 13  not present in database
None of the tracks are present in the AccurateRip database
End of status report
---- CUETools DB Plugin V2.1.6
[CTDB TOCID: HVFyakdwnOnVZ6PIjpiFib5crgw-] disk not present in database
Submit result: HVFyakdwnOnVZ6PIjpiFib5crgw- has been uploaded
==== Log checksum E5047F3D9A7A28FB0EF82462C3B2643AFF6182BBC990F6883DD5F48257E7E90C ====
Код: Выделить всё
foobar2000 1.3.9 / Замер динамического диапазона (DR) 1.1.1
Дата отчёта:  2019-05-29 09:33:50
--------------------------------------------------------------------------------
Статистика для:  ?-Their Dogs Were Astronauts - Neon Theatre
Количество сэмплов: 163656864
Продолжительность: 1:01:51
--------------------------------------------------------------------------------
           Левый             Правый
Пики:                0.00 дБ     ---      0.00 дБ
Средний RMS:              -8.94 дБ     ---     -8.77 дБ
DR канала:               6.64 дБ     ---      6.47 дБ
--------------------------------------------------------------------------------
Реальные значения DR: DR7
Частота:   44100 Гц
Каналов:   2
Разрядность:   16
Битрейт:   975 кбит/с
Кодек:   FLAC
================================================================================
Their Dogs Were Astronauts have created another gem in their new album “Neon Theatre”
For those who aren’t familiar, Their Dogs Were Astronauts are a curiously named, two man band rising up from Salzburg, Austria. Their sound could easily be recommended towards fans of Animals As Leaders, Intervals, TesseracT, and any of the like. To be more specific, these two brothers bring some gnarly Progressive Metal in an instrumental format. Insanely creative guitar playing and complex poly rhythmic drum patterns with stellar production.
They’ve proven to be quite prolific, displaying their abilities damn neat constantly with new releases. So give credit where credit is due and show these guys some support!
https://www.thecirclepit.com/
Their Dogs Were Astronauts is :
Denis Roth & Leonard Roth
Правила, инструкции, FAQ!!!
Торрент  Добавлен [04 июн 2019, 21:23] Скачать торрент Магнет ссылка
Скачать торрент
18.08 КБ

Статус
Проверен 
 
Размер  439.79 МБ
Приватный: Нет (DHT включён)
.torrent скачан  2
Как залить торрент? | Как скачать Torrent? | Как смотреть и слушать онлайн?  
Гость
 



Вернуться в Heavy, Power, Progressive (Metal)

Кто сейчас на конференции

Сейчас этот форум просматривают: нет зарегистрированных пользователей и гости: 0