(Progressive/Pop Rock) [WEB] L. Shankar - Face To Face - 2019, FLAC (tracks), lossless


Статистика раздачи
Размер: 465.99 МБ | Добавлен: 09 ноя 2019, 12:41 | Скачали: 1
Сидеров: 36  [0 байт/сек]    Личеров: 11  [0 байт/сек]

Сообщение Гость » 09 ноя 2019, 12:41

L. Shankar / Face To Face
Жанр: Progressive/Pop Rock
Носитель: WEB
Год издания: 2019
Страна исполнителя (группы): India
Аудиокодек: FLAC (*.flac)
Тип рипа: tracks
Продолжительность: 01:02:41
Источник: собственная покупка
Наличие сканов в содержимом раздачи: нет

01. Face to Face [00:05:22]
02. Misery feat. Jonathan Davis (KORN) [00:04:24]
03. Gentle and Loving feat. Juliett Rose [00:04:07]
04. Evil Eyes feat. Ana Maria Lombo [00:03:57]
05. Game Without an End [00:04:38]
06. Foot Steps [00:05:20]
07. Crazy and Wild [00:04:06]
08. No Cure feat. Pirate Davis [00:04:11]
09. Darkness [00:04:15]
10. One Wish [00:03:53]
11. Motivation feat. Juliett Rose [00:04:29]
12. Paradise feat. Chloe Trujillo [00:04:40]
13. Path [00:04:55]
14. Two Way Thing feat. Berchee [00:04:16]
Released November 6, 2019
Код: Выделить всё
-----------------------
DON'T MODIFY THIS FILE
-----------------------
PERFORMER: auCDtect Task Manager, ver. 1.6.0 RC1 build 1.6.0.1
Copyright (c) 2008-2010 y-soft. All rights reserved
[url=http://y-soft.org]http://y-soft.org[/url]
ANALYZER: auCDtect: CD records authenticity detector, version 0.8.2
Copyright (c) 2004 Oleg Berngardt. All rights reserved.
Copyright (c) 2004 Alexander Djourik. All rights reserved.
FILE: L. Shankar - Face To Face - 14 Two Way Thing feat. Berchee.flac
  Size: 33105120 Hash: 7EB490F650C5F5E6F47C0F0819CC50A7 Accuracy: -m0
  Conclusion: CDDA 100%
  Signature: E628921EA526F2EFD32E1179BDDA7AEDEAFADE0A
FILE: L. Shankar - Face To Face - 13 Path.flac
  Size: 34327385 Hash: 5D73ECE41EF1011CB4323430651E27B0 Accuracy: -m0
  Conclusion: CDDA 100%
  Signature: 7E23BCC6D8B44FE711746878DA809FA24430BEC7
FILE: L. Shankar - Face To Face - 12 Paradise feat. Chloe Trujillo.flac
  Size: 32989076 Hash: 1383255FEFB602D403D03F1164B13ABD Accuracy: -m0
  Conclusion: CDDA 100%
  Signature: 52E1F7C9BE3D7A36E44925A7674113E13D295A8F
FILE: L. Shankar - Face To Face - 11 Motivation feat. Juliett Rose.flac
  Size: 37597630 Hash: EF040AEC732376E74137572BF76815D7 Accuracy: -m0
  Conclusion: CDDA 100%
  Signature: A28C27248DD1954FF64246C86582EBD7FA808BA1
FILE: L. Shankar - Face To Face - 10 One Wish.flac
  Size: 32104018 Hash: 0ABBBCAAA073FBF931DB9EE6D7D2F5F4 Accuracy: -m0
  Conclusion: CDDA 100%
  Signature: AE3C0C06EA18989B6A75CAAC9A3E3BFCB871A8E8
FILE: L. Shankar - Face To Face - 09 Darkness.flac
  Size: 33106732 Hash: 903E8F51EC6DE8CA8549A68152B2C9EE Accuracy: -m0
  Conclusion: CDDA 100%
  Signature: 84CD67FAB2B222738322C63F516B183474D0B48F
FILE: L. Shankar - Face To Face - 08 No Cure feat. Pirate Davis.flac
  Size: 34354876 Hash: CD37C45A2CEEA3CA5DA06CD54A860E26 Accuracy: -m0
  Conclusion: CDDA 100%
  Signature: F25C923E6F7ABFB37D670F65102600499C46EF0B
FILE: L. Shankar - Face To Face - 07 Crazy and Wild.flac
  Size: 32276676 Hash: 4CDBEEECC2133F866B9AD77FBB118FA8 Accuracy: -m0
  Conclusion: CDDA 100%
  Signature: 0B9EA37F3C124EF6F91020A931B48039CD9E74B4
FILE: L. Shankar - Face To Face - 06 Foot Steps.flac
  Size: 42267376 Hash: D46B8007621CC8CE83ED0F433A6C8860 Accuracy: -m0
  Conclusion: CDDA 100%
  Signature: A10C8E6501A79E7DEFD11CC31FF34E4FFD0A58A5
FILE: L. Shankar - Face To Face - 05 Game Without an End.flac
  Size: 35515469 Hash: D09ED07403B1477117E615C8DDC88475 Accuracy: -m0
  Conclusion: CDDA 100%
  Signature: F0D44D310A9DE8C832D2F203E37C3BB6119BC3B3
FILE: L. Shankar - Face To Face - 04 Evil Eyes feat. Ana Maria Lombo.flac
  Size: 30276167 Hash: D2FEA451BE4F1466D3F22ABD49AB38E6 Accuracy: -m0
  Conclusion: CDDA 100%
  Signature: 4C17244334E618A226854F60DFAE6B19725DF07C
FILE: L. Shankar - Face To Face - 03 Gentle and Loving feat. Juliett Rose.flac
  Size: 31186999 Hash: FB4FA80729B27BA64DE986A9449ABB99 Accuracy: -m0
  Conclusion: CDDA 100%
  Signature: 69860F938AAA68297B6368E418CB44C72781F73C
FILE: L. Shankar - Face To Face - 02 Misery feat. Jonathan Davis (KORN).flac
  Size: 33783049 Hash: F235BEB20491394B567ED1038AE55924 Accuracy: -m0
  Conclusion: CDDA 100%
  Signature: 1C5ACA50F836510A71F4755DF2FBF8C8CCF036EA
FILE: L. Shankar - Face To Face - 01 Face to Face.flac
  Size: 40594786 Hash: 3DA583070FAC4FD8350854384605A0DB Accuracy: -m0
  Conclusion: CDDA 100%
  Signature: 87DD792848FD5EABAF827A83C122CE5A5F9DFA0C
Код: Выделить всё
foobar2000 1.3.12 / Dynamic Range Meter 1.1.1
log date: 2019-11-08 17:23:53
--------------------------------------------------------------------------------
Analyzed: L. Shankar / Face To Face
--------------------------------------------------------------------------------
DR         Peak         RMS     Duration Track
--------------------------------------------------------------------------------
DR8       -0.01 dB    -9.51 dB      5:23 01-Face to Face
DR7       -0.10 dB    -8.95 dB      4:24 02-Misery feat. Jonathan Davis (KORN)
DR7       -0.07 dB    -9.05 dB      4:08 03-Gentle and Loving feat. Juliett Rose
DR8       -0.01 dB    -9.23 dB      3:57 04-Evil Eyes feat. Ana Maria Lombo
DR9       -0.01 dB   -10.95 dB      4:39 05-Game Without an End
DR8       -0.01 dB    -8.79 dB      5:21 06-Foot Steps
DR8       -0.01 dB    -8.88 dB      4:06 07-Crazy and Wild
DR8       -0.01 dB    -9.95 dB      4:12 08-No Cure feat. Pirate Davis
DR7       -0.01 dB    -8.81 dB      4:15 09-Darkness
DR8       -0.01 dB    -8.46 dB      3:53 10-One Wish
DR7       -0.01 dB    -8.46 dB      4:30 11-Motivation feat. Juliett Rose
DR6       -0.01 dB    -8.45 dB      4:41 12-Paradise feat. Chloe Trujillo
DR8       -0.01 dB   -12.04 dB      4:55 13-Path
DR7       -0.01 dB    -8.15 dB      4:17 14-Two Way Thing feat. Berchee
--------------------------------------------------------------------------------
Number of tracks:  14
Official DR value: DR8
Samplerate:        44100 Hz
Channels:          2
Bits per sample:   16
Bitrate:           1026 kbps
Codec:             FLAC
================================================================================
Правила, инструкции, FAQ!!!
Торрент  Добавлен [09 ноя 2019, 12:41] Скачать торрент Магнет ссылка
Скачать торрент
19.54 КБ

Статус
Проверен 
 
Размер  465.99 МБ
Приватный: Нет (DHT включён)
.torrent скачан  1
Как залить торрент? | Как скачать Torrent? | Как смотреть и слушать онлайн?  
Гость
 


Вернуться в Progressive & Art-Rock

Кто сейчас на конференции

Сейчас этот форум просматривают: нет зарегистрированных пользователей и гости: 0