(Progressive Rock) [WEB] AlphaJorge - Storm Ahead - 2019, FLAC (tracks), lossless


Статистика раздачи
Размер: 347.37 МБ | Добавлен: 09 ноя 2019, 12:41 | Скачали: 0
Сидеров: 32  [0 байт/сек]    Личеров: 10  [0 байт/сек]

Сообщение Гость » 09 ноя 2019, 12:41


AlphaJorge

Storm Ahead




• Жанр: Progressive Rock
• Носитель: WEB
• Год издания: 2019
• Страна: Brazil
• Аудиокодек: FLAC (*.flac)
• Тип рипа: tracks
• Продолжительность: 00:54:21
• Источник: internet
• Наличие сканов: front
Tracklist:
01 - Raven (00:07:22)
02 - Hidden Garden (00:12:16)
03 - Supernova (00:06:18)
04 - Broken Wings (00:06:46)
05 - Halfway to the Light (00:12:45)
06 - Storm Ahead (00:07:16)
07 - Halfway to the Light (Reprise) (00:01:36)


Код: Выделить всё
foobar2000 1.4.2 / Dynamic Range Meter 1.1.1
log date: 2019-11-09 09:09:49
--------------------------------------------------------------------------------
Analyzed: AlphaJorge / Storm Ahead
--------------------------------------------------------------------------------
DR         Peak         RMS     Duration Track
--------------------------------------------------------------------------------
DR10      -0.23 dB   -11.98 dB      7:22 1/7-Raven
DR9       -0.30 dB   -11.74 dB     12:16 2/7-Hidden Garden
DR10      -0.22 dB   -12.81 dB      6:18 3/7-Supernova
DR10      -0.23 dB   -13.40 dB      6:47 4/7-Broken Wings
DR10      -0.23 dB   -12.53 dB     12:45 5/7-Halfway to the Light
DR11      -0.30 dB   -12.34 dB      7:16 6/7-Storm Ahead
DR12      -0.92 dB   -16.13 dB      1:36 7/7-Halfway to the Light (Reprise)
--------------------------------------------------------------------------------
Number of tracks:  7
Official DR value: DR10
Samplerate:        44100 Hz
Channels:          2
Bits per sample:   16
Bitrate:           707 kbps
Codec:             FLAC
================================================================================

Код: Выделить всё
-----------------------
DON'T MODIFY THIS FILE
-----------------------
PERFORMER: auCDtect Task Manager, ver. 1.6.0 RC1 build 1.6.0.1
Copyright (c) 2008-2010 y-soft. All rights reserved
[url=http://y-soft.org]http://y-soft.org[/url]
ANALYZER: auCDtect: CD records authenticity detector, version 0.8.2
Copyright (c) 2004 Oleg Berngardt. All rights reserved.
Copyright (c) 2004 Alexander Djourik. All rights reserved.
FILE: 07 - Halfway to the Light (Reprise).flac
  Size: 8574022 Hash: 9C500AA32C6D99A1701635A49472AF6D Accuracy: -m8
  Conclusion: CDDA 100%
  Signature: FF8801B715FF936D417C4ECAAAAED4DCE01BDF05
FILE: 06 - Storm Ahead.flac
  Size: 52458880 Hash: 424BB0666DE3F780384DD6A495E47B1C Accuracy: -m8
  Conclusion: CDDA 100%
  Signature: 6C64080F9D0038A1A301C609E76C90B400B6751A
FILE: 05 - Halfway to the Light.flac
  Size: 86820669 Hash: 03006BBBF19CDDAF02AD2B9C6C7A538C Accuracy: -m8
  Conclusion: CDDA 100%
  Signature: 30FEE5B757F11BAD304F449AC31791BF05B21154
FILE: 04 - Broken Wings.flac
  Size: 42306603 Hash: 4008097C853FA33EC6C0651964215B06 Accuracy: -m8
  Conclusion: CDDA 100%
  Signature: 97748826939AF1774E342C2AD5E06B43CDB1744A
FILE: 03 - Supernova.flac
  Size: 42016803 Hash: 23C770C9E75B9E5B87B4A278A97D76E4 Accuracy: -m8
  Conclusion: CDDA 100%
  Signature: DFC2669E4255B42731394231DC1F2625CCC8638B
FILE: 02 - Hidden Garden.flac
  Size: 79354279 Hash: 2B11C06304765017787282EC2E07E785 Accuracy: -m8
  Conclusion: CDDA 100%
  Signature: 7C4642DC722F3EBDECADDF0B7D39B336E748CAF9
FILE: 01 - Raven.flac
  Size: 52231270 Hash: 45E10F03F7D671C11A6082D1197FA502 Accuracy: -m8
  Conclusion: CDDA 100%
  Signature: C06CB9278B30EFFC82DE0FFA11ACDB8EAC0D89BF

Arthur Rodrigues - Vocals, Guitars
Nicholas Medeiros - Guitars, Backing Vocals
Thiago Daros - Bass, Flute, Backing Vocals
Diego Rapoport - Drums, Backing Vocals
Label: Narbal Records.
Released 08 November 2019.

Правила, инструкции, FAQ!!!
Торрент  Добавлен [09 ноя 2019, 12:41] Скачать торрент Магнет ссылка
Скачать торрент
14.43 КБ

Статус
Проверен 
 
Размер  347.37 МБ
Приватный: Нет (DHT включён)
.torrent скачан  0
Как залить торрент? | Как скачать Torrent? | Как смотреть и слушать онлайн?  
Гость
 


Вернуться в Progressive & Art-Rock

Кто сейчас на конференции

Сейчас этот форум просматривают: нет зарегистрированных пользователей и гости: 2