(Progressive Rock) [CD] Centric Jones - The Antikythera Method - 2011, FLAC (image+.cue), lossless


Статистика раздачи
Размер: 484.24 МБ | Добавлен: 09 ноя 2019, 12:39 | Скачали: 0
Сидеров: 0  [0 байт/сек]    Личеров: 0  [0 байт/сек]

Сообщение Гость » 09 ноя 2019, 12:39

Centric Jones / The Antikythera Method
Жанр: Progressive Rock
Носитель: CD
Год издания: 2011
Издатель (лейбл): ProgRock Records ‎
Номер по каталогу: PRR 077
Аудиокодек: FLAC (*.flac)
Тип рипа: image+.cue
Продолжительность: 01:09:36
Источник: локальная сеть
Наличие сканов в содержимом раздачи: нет
Треклист:
1 Crushed
2 Shadow Song
3 All For One
4 Boomer
5 Dream In Threes
6 Pyrrhic Victory
7 Fading Time
8 Morphogenic
9 Save Me
10 Then
11 Pulse
12 Antikythera Mechanism
Код: Выделить всё
Exact Audio Copy V1.0 beta 4 from 7. December 2014
Отчёт EAC об извлечении, выполненном 8. января 2016, 16:42
Centric Jones / The Antikythera Method
Дисковод: HL-DT-STDVDRAM GU71N   Adapter: 1  ID: 0
Режим чтения                 : Достоверность
Использование точного потока : Да
Отключение кэша аудио        : Да
Использование указателей C2  : Нет
Коррекция смещения при чтении                     : 6
Способность читать области Lead-in и Lead-out     : Нет
Заполнение пропущенных сэмплов тишиной            : Да
Удаление блоков с тишиной в начале и конце        : Нет
При вычислениях CRC использовались нулевые сэмплы : Да
Интерфейс                                         : Встроенный Win32-интерфейс для Win NT/2000
Выходной формат          : Пользовательский кодировщик
Выбранный битрейт        : 768 kBit/s
Качество                 : Высокий
Добавление ID3-тега      : Нет
Утилита сжатия           : C:\Program Files (x86)\Exact Audio Copy\FLAC\FLAC.EXE
Дополнительные параметры : -V -8 -T "Date=%year%" -T "Genre=%genre%" %source%
TOC извлечённого CD
     Трек |   Старт  | Длительность | Начальный сектор | Конечный сектор
    ---------------------------------------------------------------------
       1  |  0:00.00 |    4:22.31   |           0      |      19680
       2  |  4:22.31 |    5:58.56   |       19681      |      46586
       3  | 10:21.12 |    7:12.50   |       46587      |      79036
       4  | 17:33.62 |    6:11.25   |       79037      |     106886
       5  | 23:45.12 |    6:47.45   |      106887      |     137456
       6  | 30:32.57 |    2:24.48   |      137457      |     148304
       7  | 32:57.30 |    7:11.30   |      148305      |     180659
       8  | 40:08.60 |    6:24.63   |      180660      |     209522
       9  | 46:33.48 |    6:31.44   |      209523      |     238891
      10  | 53:05.17 |    6:05.29   |      238892      |     266295
      11  | 59:10.46 |    3:22.03   |      266296      |     281448
      12  | 62:32.49 |    7:03.47   |      281449      |     313220
Характеристики диапазона извлечения и сообщения об ошибках
Выбранный диапазон
     Имя файла D:\Users\User\Documents\Centric Jones - The Antikythera Method.wav
     Пиковый уровень 98.0 %
     Скорость извлечения 4.9 X
     Качество диапазона 100.0 %
     CRC теста E4E50A7F
     CRC копии E4E50A7F
     Копирование... OK
Ошибок не произошло
AccurateRip: сводка
Трек  1  отсутствует в базе данных
Трек  2  отсутствует в базе данных
Трек  3  отсутствует в базе данных
Трек  4  отсутствует в базе данных
Трек  5  отсутствует в базе данных
Трек  6  отсутствует в базе данных
Трек  7  отсутствует в базе данных
Трек  8  отсутствует в базе данных
Трек  9  отсутствует в базе данных
Трек 10  отсутствует в базе данных
Трек 11  отсутствует в базе данных
Трек 12  отсутствует в базе данных
Ни одного трека нет в базе AccurateRip
Конец отчёта
==== Контрольная сумма отчёта 58EB52BFAE678AC71455CED4758547874DC30663A574C848D263498672E073DB ====
Код: Выделить всё
REM GENRE "Progressive Rock"
REM DATE 2012
REM DISCID AF10500C
REM COMMENT "ExactAudioCopy v1.0b4"
PERFORMER "Centric Jones"
TITLE "The Antikythera Method"
FILE "Centric Jones - The Antikythera Method.flac" WAVE
  TRACK 01 AUDIO
    TITLE "Crushed"
    PERFORMER "Centric Jones"
    INDEX 01 00:00:00
  TRACK 02 AUDIO
    TITLE "Shadow Song"
    PERFORMER "Centric Jones"
    INDEX 01 04:22:31
  TRACK 03 AUDIO
    TITLE "All For One"
    PERFORMER "Centric Jones"
    INDEX 01 10:21:12
  TRACK 04 AUDIO
    TITLE "Boomer"
    PERFORMER "Centric Jones"
    INDEX 01 17:33:62
  TRACK 05 AUDIO
    TITLE "Dream in Threes"
    PERFORMER "Centric Jones"
    INDEX 01 23:45:12
  TRACK 06 AUDIO
    TITLE "Pyrrhic Victory"
    PERFORMER "Centric Jones"
    INDEX 01 30:32:57
  TRACK 07 AUDIO
    TITLE "Fading Time"
    PERFORMER "Centric Jones"
    INDEX 01 32:57:30
  TRACK 08 AUDIO
    TITLE "Morphogenic"
    PERFORMER "Centric Jones"
    INDEX 01 40:08:60
  TRACK 09 AUDIO
    TITLE "Save Me"
    PERFORMER "Centric Jones"
    INDEX 01 46:33:48
  TRACK 10 AUDIO
    TITLE "Then"
    PERFORMER "Centric Jones"
    INDEX 01 53:05:17
  TRACK 11 AUDIO
    TITLE "Pulse"
    PERFORMER "Centric Jones"
    INDEX 01 59:10:46
  TRACK 12 AUDIO
    TITLE "Antikythera Mechanism"
    PERFORMER "Centric Jones"
    INDEX 01 62:32:49
Код: Выделить всё
-----------------------
DON'T MODIFY THIS FILE
-----------------------
PERFORMER: auCDtect Task Manager, ver. 1.6.0 RC1 build 1.6.0.1
Copyright (c) 2008-2010 y-soft. All rights reserved
[url=http://y-soft.org]http://y-soft.org[/url]
ANALYZER: auCDtect: CD records authenticity detector, version 0.8.2
Copyright (c) 2004 Oleg Berngardt. All rights reserved.
Copyright (c) 2004 Alexander Djourik. All rights reserved.
FILE: Centric Jones - The Antikythera Method.flac
  Size: 507721317 Hash: DF4BC7D22E204FAC05A233675A1B647F Accuracy: -m0
  Conclusion: CDDA 100%
  Signature: 5B4FBC87D54B936F09EE8B26204C70C14B1FEA5C
Правила, инструкции, FAQ!!!
Торрент  Добавлен [09 ноя 2019, 12:39] Скачать торрент Магнет ссылка
Скачать торрент
19.74 КБ

Статус
Проверен 
 
Размер  484.24 МБ
Приватный: Нет (DHT включён)
.torrent скачан  0
Как залить торрент? | Как скачать Torrent? | Как смотреть и слушать онлайн?  
Гость
 


Вернуться в Progressive & Art-Rock

Кто сейчас на конференции

Сейчас этот форум просматривают: нет зарегистрированных пользователей и гости: 4