(Progressive Rock / Jazz-Rock) [WEB] Karcius - Live In France - 2019, FLAC (tracks), lossless


Статистика раздачи
Размер: 665.04 МБ | Добавлен: 09 ноя 2019, 12:40 | Скачали: 2
Сидеров: 19  [0 байт/сек]    Личеров: 6  [0 байт/сек]

Сообщение Гость » 09 ноя 2019, 12:40

Karcius / Live In France
Жанр: Progressive Rock / Jazz-Rock
Носитель: WEB
Год издания: 2019
Издатель (лейбл): Web Release [Self Release]
Страна исполнителя (группы): Canada
Аудиокодек: FLAC (*.flac)
Тип рипа: tracks
Продолжительность: 100:42 min
Источник: собственная покупка
Наличие сканов в содержимом раздачи:
Треклист:
1. Absence of Light. 10:15
2. Something. 6:18
3. Hardwired. 6:20
4. Incident. 10:09
5. Water. 8:25
6. Hypnotic. 7:41
7. Sol. 8:41
8. Goodbye. 9:34
9. Burning my Dreams. 7:26
10. The Fold. 7:11
11. Purple King. 8:00
12. The Space Between (Bonus track). 6:06
13. Water (Acoustic Version). 4:28
Код: Выделить всё
foobar2000 1.4.2 / Замер динамического диапазона (DR) 1.1.1
Дата отчёта:  2019-11-06 00:16:58
--------------------------------------------------------------------------------
Анализ:   Karcius / Live in France
--------------------------------------------------------------------------------
DR         Пики         RMS           Продолжительность трека
--------------------------------------------------------------------------------
DR7        0.00 дБ   -10.31 дБ     10:15 01-Absence of Light (Live)
DR6        0.00 дБ    -7.97 дБ      6:18 02-Something (Live)
DR6        0.00 дБ    -8.92 дБ      6:21 03-Hardwired (Live)
DR7       -0.03 дБ    -9.05 дБ     10:09 04-Incident (Live)
DR7        0.00 дБ    -8.09 дБ      8:25 05-Water (Live)
DR7        0.00 дБ    -9.27 дБ      7:42 06-Hypnotic (Live)
DR7        0.00 дБ    -8.93 дБ      8:42 07-Sol (Live)
DR7        0.00 дБ   -10.29 дБ      9:35 08-Goodbye (Live)
DR6        0.00 дБ    -8.79 дБ      7:27 09-Burning My Dreams (Live)
DR6       -0.40 дБ    -8.43 дБ      7:12 10-The Fold (Live)
DR7        0.00 дБ    -8.08 дБ      8:00 11-Purple King (Live)
DR7       -0.57 дБ   -10.42 дБ      6:07 12-The Space Between (Bonus Track)
DR11      -0.56 дБ   -15.04 дБ      4:28 13-Water (Acoustic Version) [Bonus Track]
--------------------------------------------------------------------------------
Количество треков: 13
Реальные значения DR: DR7
Частота:   44100 Гц
Каналов:   2
Разрядность:   16
Битрейт:   814 кбит/с
Кодек:   FLAC
================================================================================
Код: Выделить всё
-----------------------
DON'T MODIFY THIS FILE
-----------------------
PERFORMER: auCDtect Task Manager, ver. 1.6.0 RC1 build 1.6.0.1
Copyright (c) 2008-2010 y-soft. All rights reserved
[url=http://y-soft.org]http://y-soft.org[/url]
ANALYZER: auCDtect: CD records authenticity detector, version 0.8.2
Copyright (c) 2004 Oleg Berngardt. All rights reserved.
Copyright (c) 2004 Alexander Djourik. All rights reserved.
FILE: 01. Absence of Light (Live).flac
  Size: 66038890 Hash: 85D21FDCBD1D409FD1724840A577ACCE Accuracy: -m0
  Conclusion: CDDA 100%
  Signature: A97B3B5A3BDFA98F2A6931AEBFEE5F9529E02179
FILE: 02. Something (Live).flac
  Size: 44495147 Hash: 06DAF8D07F536B7E129D227025A4455B Accuracy: -m0
  Conclusion: CDDA 100%
  Signature: A390E1CA8598660B576C9E8F8DD23F9AC3CAB3D8
FILE: 03. Hardwired (Live).flac
  Size: 43908732 Hash: F7A1A74AAF8CE4558FC16370DDEC8588 Accuracy: -m0
  Conclusion: CDDA 100%
  Signature: 97361B2096E903D269FF1B235FF6CC3220B70D25
FILE: 04. Incident (Live).flac
  Size: 69678830 Hash: B5401D22AFFCE8ABD101FDF6F13B4F72 Accuracy: -m0
  Conclusion: CDDA 100%
  Signature: DD6A51ECFBE43FD2407666CD9A63F089B6AAFE72
FILE: 05. Water (Live).flac
  Size: 61693504 Hash: D4EAED4EC7057D99B167AB3178A1191B Accuracy: -m0
  Conclusion: CDDA 100%
  Signature: 831EC672ABAAC36D15E00442B70FCCB7420052FE
FILE: 06. Hypnotic (Live).flac
  Size: 51726296 Hash: 7CCD143617768AA249750CDFC96C70DF Accuracy: -m0
  Conclusion: CDDA 99%
  Signature: F271A891F85AA406DF823EC4D2BB9872895216F7
FILE: 07. Sol (Live).flac
  Size: 63185327 Hash: 7E41269B204F16C198A7C801C7083360 Accuracy: -m0
  Conclusion: CDDA 100%
  Signature: 78CED8E79183AF5BEA23D221CD37BFDE491A1BF4
FILE: 08. Goodbye (Live).flac
  Size: 64798418 Hash: 37BEE63A2FB753A7BB2147BC3AD993AB Accuracy: -m0
  Conclusion: CDDA 100%
  Signature: DAF2D0BF326A673A4C35C483BBC31EB22E4B539F
FILE: 09. Burning My Dreams (Live).flac
  Size: 52931751 Hash: 3FA7FFEC9C5005326FFA49852FCFF50F Accuracy: -m0
  Conclusion: CDDA 100%
  Signature: 2411FF62B34866D79AA51E79847928428E4F8A96
FILE: 10. The Fold (Live).flac
  Size: 53006462 Hash: DD8F14EF59DDA7907F1B67C889A399F1 Accuracy: -m0
  Conclusion: CDDA 100%
  Signature: D51832E5160B282B83855E2A9A99D579A29BAC95
FILE: 11. Purple King (Live).flac
  Size: 58577310 Hash: 237EA0FFDB040639867739254B65A883 Accuracy: -m0
  Conclusion: CDDA 100%
  Signature: 1AAC5825B61FEB3A95575F88EB91EEE8B9FF8CCF
FILE: 12. The Space Between (Bonus Track).flac
  Size: 39358041 Hash: 579CEFC926D5AEF0C776DD9D5E79CB9F Accuracy: -m0
  Conclusion: CDDA 100%
  Signature: E0F528A4EE0085B95EB7AE6A64CBBCC2AB16516E
FILE: 13. Water (Acoustic Version) [Bonus Track].flac
  Size: 27425885 Hash: 60AA1B3378C3A88FF772225064016AA4 Accuracy: -m0
  Conclusion: CDDA 100%
  Signature: 17A0AB908887B241704E47B584F430C22111C2DC
Recorded in Saint Palais Sur Mer, France, on August 18, 2018, by Arnaud Houpert
Mixed by Simon L’Espérance and Thomas Brodeur in Montreal, Canada
Mastering by Pierre St-Jean & Michel Coulombe at LUCIDVISION.MEDIA
Produced by Karcius
released November 5, 2019
- Sylvain Auclair / Bass & Vocals
- Thomas Brodeur / Drums & Sequencing
- Sébastien Cloutier / Keyboard, Acoustic Guitar & Back Vocals
- Simon L’Espérance / Guitars
Правила, инструкции, FAQ!!!
Торрент  Добавлен [09 ноя 2019, 12:40] Скачать торрент Магнет ссылка
Скачать торрент
14.46 КБ

Статус
Проверен 
 
Размер  665.04 МБ
Приватный: Нет (DHT включён)
.torrent скачан  2
Как залить торрент? | Как скачать Torrent? | Как смотреть и слушать онлайн?  
Гость
 


Вернуться в Progressive & Art-Rock

Кто сейчас на конференции

Сейчас этот форум просматривают: нет зарегистрированных пользователей и гости: 2