(Progressive Rock, Jazz Rock) [2CD] Mandoki Soulmates - Living In The Gap + Hungarian Pictures - 2019, FLAC (image+.cue), lossless


Статистика раздачи
Размер: 796.63 МБ | Добавлен: 09 ноя 2019, 12:38 | Скачали: 0
Сидеров: 1  [0 байт/сек]    Личеров: 0  [0 байт/сек]

Сообщение Гость » 09 ноя 2019, 12:38

Mandoki Soulmates - Living In The Gap + Hungarian Pictures

Жанр: Progressive Rock, Jazz Rock
Носитель: 2CD
Страна-производитель диска (релиза): Россия, unofficial
Год издания: 2019
Издатель (лейбл): Red Rock Production
Номер по каталогу: 19075975242
Страна исполнителя (группы): Germany
Аудиокодек: FLAC (*.flac)
Тип рипа: image+.cue
Источник: собственный рип
Наличие сканов в содержимом раздачи: да
01. Living In The Gap 7:07
02. Young Rebels 4:26
03. Turn The Wind 5:18
04. Where We Belong 5:05
05. Let The Music Show You The Way 4:12
06. Too Much Pride 6:55
07. Old Rebels 4:43
08. Welcome To Real Life 7:47
09. Hottest Queen Of Cool 3:48
10. Wake Up 4:26
11. Mother Europe 3:41
12. I'm Not Your Enemy 8:49
Код: Выделить всё
Exact Audio Copy V1.3 from 2. September 2016
Отчёт EAC об извлечении, выполненном 2. ноября 2019, 13:48
Mandoki Soulmates / Living In The Gap
Дисковод: ASUS    DRW-24B3ST   Adapter: 1  ID: 0
Режим чтения                 : Достоверность
Использование точного потока : Да
Отключение кэша аудио        : Да
Использование указателей C2  : Нет
Коррекция смещения при чтении                     : 6
Способность читать области Lead-in и Lead-out     : Нет
Заполнение пропущенных сэмплов тишиной            : Да
Удаление блоков с тишиной в начале и конце        : Нет
При вычислениях CRC использовались нулевые сэмплы : Да
Интерфейс                                         : Встроенный Win32-интерфейс для Win NT/2000
Выходной формат          : Пользовательский кодировщик
Выбранный битрейт        : 1024 kBit/s
Качество                 : Высокий
Добавление ID3-тега      : Нет
Утилита сжатия           : C:\Program Files (x86)\Exact Audio Copy\Flac\flac.exe
Дополнительные параметры : -V -8 -T "Date=%year%" -T "Genre=%genre%" %source%
TOC извлечённого CD
     Трек |   Старт  | Длительность | Начальный сектор | Конечный сектор
    ---------------------------------------------------------------------
       1  |  0:00.00 |    7:07.16   |           0      |      32040
       2  |  7:07.16 |    4:26.12   |       32041      |      52002
       3  | 11:33.28 |    5:17.52   |       52003      |      75829
       4  | 16:51.05 |    5:05.32   |       75830      |      98736
       5  | 21:56.37 |    4:12.28   |       98737      |     117664
       6  | 26:08.65 |    6:55.15   |      117665      |     148804
       7  | 33:04.05 |    4:43.12   |      148805      |     170041
       8  | 37:47.17 |    7:46.47   |      170042      |     205038
       9  | 45:33.64 |    3:47.44   |      205039      |     222107
      10  | 49:21.33 |    4:25.73   |      222108      |     242055
      11  | 53:47.31 |    3:41.15   |      242056      |     258645
      12  | 57:28.46 |    8:48.67   |      258646      |     298312
Характеристики диапазона извлечения и сообщения об ошибках
Выбранный диапазон
     Имя файла E:\Torrents-seed\Mandoki Soulmates - 2019\Album 1 - Living In The Gap\Mandoki Soulmates - Living In The Gap.wav
     Пиковый уровень 99.9 %
     Скорость извлечения 3.4 X
     Качество диапазона 99.9 %
     CRC теста 4D4636B0
     CRC копии 4D4636B0
     Копирование... OK
Ошибок не произошло
AccurateRip: сводка
Трек  1  отсутствует в базе данных
Трек  2  отсутствует в базе данных
Трек  3  отсутствует в базе данных
Трек  4  отсутствует в базе данных
Трек  5  отсутствует в базе данных
Трек  6  отсутствует в базе данных
Трек  7  отсутствует в базе данных
Трек  8  отсутствует в базе данных
Трек  9  отсутствует в базе данных
Трек 10  отсутствует в базе данных
Трек 11  отсутствует в базе данных
Трек 12  отсутствует в базе данных
Ни одного трека нет в базе AccurateRip
Конец отчёта
==== Контрольная сумма отчёта 8A855C7A6B5E7F84AB5AB8EA85C658853F2A71423A009382BF6A973AF6EEBF5D ====
Код: Выделить всё
REM GENRE "Progressive Rock"
REM DATE 2019
REM DISCID B00F890C
REM COMMENT "ExactAudioCopy v1.3"
PERFORMER "Mandoki Soulmates"
TITLE "Living In The Gap"
REM COMPOSER ""
FILE "Mandoki Soulmates - Living In The Gap.flac" WAVE
  TRACK 01 AUDIO
    TITLE "Living In The Gap"
    PERFORMER "Mandoki Soulmates"
    REM COMPOSER ""
    INDEX 01 00:00:00
  TRACK 02 AUDIO
    TITLE "Young Rebels"
    PERFORMER "Mandoki Soulmates"
    REM COMPOSER ""
    INDEX 01 07:07:16
  TRACK 03 AUDIO
    TITLE "Turn The Wind"
    PERFORMER "Mandoki Soulmates"
    REM COMPOSER ""
    INDEX 01 11:33:28
  TRACK 04 AUDIO
    TITLE "Where We Belong"
    PERFORMER "Mandoki Soulmates"
    REM COMPOSER ""
    INDEX 01 16:51:05
  TRACK 05 AUDIO
    TITLE "Let The Music Show You The Way"
    PERFORMER "Mandoki Soulmates"
    REM COMPOSER ""
    INDEX 01 21:56:37
  TRACK 06 AUDIO
    TITLE "Too Much Pride"
    PERFORMER "Mandoki Soulmates"
    REM COMPOSER ""
    INDEX 01 26:08:65
  TRACK 07 AUDIO
    TITLE "Old Rebels"
    PERFORMER "Mandoki Soulmates"
    REM COMPOSER ""
    INDEX 01 33:04:05
  TRACK 08 AUDIO
    TITLE "Welcome To Real Life"
    PERFORMER "Mandoki Soulmates"
    REM COMPOSER ""
    INDEX 01 37:47:17
  TRACK 09 AUDIO
    TITLE "Hottest Queen Of Cool"
    PERFORMER "Mandoki Soulmates"
    REM COMPOSER ""
    INDEX 01 45:33:64
  TRACK 10 AUDIO
    TITLE "Wake Up"
    PERFORMER "Mandoki Soulmates"
    REM COMPOSER ""
    INDEX 01 49:21:33
  TRACK 11 AUDIO
    TITLE "Mother Europe"
    PERFORMER "Mandoki Soulmates"
    REM COMPOSER ""
    INDEX 01 53:47:31
  TRACK 12 AUDIO
    TITLE "I'm Not Your Enemy"
    PERFORMER "Mandoki Soulmates"
    REM COMPOSER ""
    INDEX 01 57:28:46
Код: Выделить всё
foobar2000 1.3.17 / Dynamic Range Meter 1.1.1
log date: 2019-11-02 13:51:14
--------------------------------------------------------------------------------
Analyzed: Mandoki Soulmates / Living In The Gap
--------------------------------------------------------------------------------
DR         Peak         RMS     Duration Track
--------------------------------------------------------------------------------
DR5       -0.02 dB    -6.49 dB      7:07 01-Living In The Gap
DR5       -0.12 dB    -7.37 dB      4:26 02-Young Rebels
DR6       -0.09 dB    -8.02 dB      5:18 03-Turn The Wind
DR5       -0.13 dB    -8.80 dB      5:05 04-Where We Belong
DR9       -0.10 dB   -11.01 dB      4:12 05-Let The Music Show You The Way
DR5       -0.11 dB    -6.74 dB      6:55 06-Too Much Pride
DR5       -0.13 dB    -7.29 dB      4:43 07-Old Rebels
DR6       -0.08 dB    -8.06 dB      7:47 08-Welcome To Real Life
DR7       -0.01 dB    -8.59 dB      3:48 09-Hottest Queen Of Cool
DR6       -0.10 dB    -7.69 dB      4:26 10-Wake Up
DR5       -0.08 dB    -8.04 dB      3:41 11-Mother Europe
DR7       -0.06 dB    -9.65 dB      8:49 12-I'm Not Your Enemy
--------------------------------------------------------------------------------
Number of tracks:  12
Official DR value: DR6
Samplerate:        44100 Hz
Channels:          2
Bits per sample:   16
Bitrate:           955 kbps
Codec:             FLAC
================================================================================
01. Sessions In The Village 6:50
02. Utopia For Realists 2:09
03. Transylvanian Dances 19:02
04. You'll Find Me In Your Mirror 2:35
05. Return To Budapest 4:36
06. Barbaro 4:32
07. The Torch 5:51
Код: Выделить всё
Exact Audio Copy V1.3 from 2. September 2016
Отчёт EAC об извлечении, выполненном 2. ноября 2019, 14:21
Mandoki Soulmates / Hungarian Pictures
Дисковод: ASUS    DRW-24B3ST   Adapter: 1  ID: 0
Режим чтения                 : Достоверность
Использование точного потока : Да
Отключение кэша аудио        : Да
Использование указателей C2  : Нет
Коррекция смещения при чтении                     : 6
Способность читать области Lead-in и Lead-out     : Нет
Заполнение пропущенных сэмплов тишиной            : Да
Удаление блоков с тишиной в начале и конце        : Нет
При вычислениях CRC использовались нулевые сэмплы : Да
Интерфейс                                         : Встроенный Win32-интерфейс для Win NT/2000
Выходной формат          : Пользовательский кодировщик
Выбранный битрейт        : 1024 kBit/s
Качество                 : Высокий
Добавление ID3-тега      : Нет
Утилита сжатия           : C:\Program Files (x86)\Exact Audio Copy\Flac\flac.exe
Дополнительные параметры : -V -8 -T "Date=%year%" -T "Genre=%genre%" %source%
TOC извлечённого CD
     Трек |   Старт  | Длительность | Начальный сектор | Конечный сектор
    ---------------------------------------------------------------------
       1  |  0:00.00 |    6:50.22   |           0      |      30771
       2  |  6:50.22 |    2:08.61   |       30772      |      40432
       3  |  8:59.08 |   19:01.51   |       40433      |     126058
       4  | 28:00.59 |    2:34.65   |      126059      |     137673
       5  | 30:35.49 |    4:35.50   |      137674      |     158348
       6  | 35:11.24 |    4:31.56   |      158349      |     178729
       7  | 39:43.05 |    5:50.53   |      178730      |     205032
Характеристики диапазона извлечения и сообщения об ошибках
Выбранный диапазон
     Имя файла E:\Torrents-seed\Mandoki Soulmates - 2019\Album 2 - Hungarian Pictures\Mandoki Soulmates - Hungarian Pictures.wav
     Пиковый уровень 98.7 %
     Скорость извлечения 3.2 X
     Качество диапазона 100.0 %
     CRC теста 38C399A8
     CRC копии 38C399A8
     Копирование... OK
Ошибок не произошло
AccurateRip: сводка
Трек  1  отсутствует в базе данных
Трек  2  отсутствует в базе данных
Трек  3  отсутствует в базе данных
Трек  4  отсутствует в базе данных
Трек  5  отсутствует в базе данных
Трек  6  отсутствует в базе данных
Трек  7  отсутствует в базе данных
Ни одного трека нет в базе AccurateRip
Конец отчёта
==== Контрольная сумма отчёта F4D92A31A63AB7B2C95DF5C2E048668D79C3E3F003C141442386B1FD99F99115 ====
Код: Выделить всё
REM GENRE "Progressive Rock"
REM DATE 2019
REM DISCID 500AAD07
REM COMMENT "ExactAudioCopy v1.3"
PERFORMER "Mandoki Soulmates"
TITLE "Hungarian Pictures"
REM COMPOSER ""
FILE "Mandoki Soulmates - Hungarian Pictures.flac" WAVE
  TRACK 01 AUDIO
    TITLE "Sessions In The Village"
    PERFORMER "Mandoki Soulmates"
    REM COMPOSER ""
    INDEX 01 00:00:00
  TRACK 02 AUDIO
    TITLE "Utopia For Realists"
    PERFORMER "Mandoki Soulmates"
    REM COMPOSER ""
    INDEX 01 06:50:22
  TRACK 03 AUDIO
    TITLE "Transylvanian Dances"
    PERFORMER "Mandoki Soulmates"
    REM COMPOSER ""
    INDEX 01 08:59:08
  TRACK 04 AUDIO
    TITLE "You'll Find Me In Your Mirror"
    PERFORMER "Mandoki Soulmates"
    REM COMPOSER ""
    INDEX 01 28:00:59
  TRACK 05 AUDIO
    TITLE "Return To Budapest"
    PERFORMER "Mandoki Soulmates"
    REM COMPOSER ""
    INDEX 01 30:35:49
  TRACK 06 AUDIO
    TITLE "Barbaro"
    PERFORMER "Mandoki Soulmates"
    REM COMPOSER ""
    INDEX 01 35:11:24
  TRACK 07 AUDIO
    TITLE "The Torch"
    PERFORMER "Mandoki Soulmates"
    REM COMPOSER ""
    INDEX 01 39:43:05
Код: Выделить всё
foobar2000 1.3.17 / Dynamic Range Meter 1.1.1
log date: 2019-11-02 14:24:34
--------------------------------------------------------------------------------
Analyzed: Mandoki Soulmates / Hungarian Pictures
--------------------------------------------------------------------------------
DR         Peak         RMS     Duration Track
--------------------------------------------------------------------------------
DR7       -0.13 dB   -10.15 dB      6:50 01-Sessions In The Village
DR8       -0.14 dB   -10.82 dB      2:09 02-Utopia For Realists
DR8       -0.12 dB   -11.85 dB     19:02 03-Transylvanian Dances
DR8       -0.12 dB   -10.92 dB      2:35 04-You'll Find Me In Your Mirror
DR11      -0.14 dB   -13.92 dB      4:36 05-Return To Budapest
DR6       -0.11 dB    -8.03 dB      4:32 06-Barbaro
DR7       -0.12 dB   -10.74 dB      5:51 07-The Torch
--------------------------------------------------------------------------------
Number of tracks:  7
Official DR value: DR8
Samplerate:        44100 Hz
Channels:          2
Bits per sample:   16
Bitrate:           846 kbps
Codec:             FLAC
================================================================================
См. буклет, состав очень большой и звездный
Правила, инструкции, FAQ!!!
Торрент  Добавлен [09 ноя 2019, 12:38] Скачать торрент Магнет ссылка
Скачать торрент
17.22 КБ

Статус
Проверен 
 
Размер  796.63 МБ
Приватный: Нет (DHT включён)
.torrent скачан  0
Как залить торрент? | Как скачать Torrent? | Как смотреть и слушать онлайн?  
Гость
 


Вернуться в Progressive & Art-Rock

Кто сейчас на конференции

Сейчас этот форум просматривают: нет зарегистрированных пользователей и гости: 1