(Progressive Rock | Metal) [WEB] Aline Sleeps - Cryptic Flavor - 2019, FLAC (tracks), lossless


Статистика раздачи
Размер: 432.4 МБ | Добавлен: 26 май 2019, 13:27 | Скачали: 0
Сидеров: 1  [0 байт/сек]    Личеров: 0  [0 байт/сек]

Сообщение Гость » 26 май 2019, 13:27


Aline Sleeps

Cryptic Flavor





• Жанр: Progressive Rock | Metal
• Носитель: WEB
• Год издания: 2019
• Страна: Switzerland
• Аудиокодек: FLAC (*.flac)
• Тип рипа: tracks
• Продолжительность: 01:05:53
• Источник: internet
• Наличие сканов: front

01 - The Timer (00:04:22)
02 - Fictionary (00:06:06)
03 - Tattered Sky (00:07:54)
04 - Cryptic Flavor (00:08:12)
05 - No More Stars (00:06:43)
06 - Entire Loss (Instrumental) (00:06:13)
07 - Countless Steps (00:09:29)
08 - Suspense Factor (00:08:00)
09 - The Path (00:08:51)


Код: Выделить всё
foobar2000 1.4.2 / Dynamic Range Meter 1.1.1
log date: 2019-05-19 08:53:01
--------------------------------------------------------------------------------
Analyzed: Aline Sleeps / Cryptic Flavor
--------------------------------------------------------------------------------
DR         Peak         RMS     Duration Track
--------------------------------------------------------------------------------
DR5       -0.11 dB    -7.08 dB      4:23 01-The Timer
DR6       -0.11 dB    -7.71 dB      6:07 02-Fictionary
DR6       -0.11 dB    -8.53 dB      7:55 03-Tattered Sky
DR7       -0.11 dB    -8.54 dB      8:12 04-Cryptic Flavor
DR6       -0.11 dB    -8.24 dB      6:43 05-No More Stars
DR6       -0.11 dB    -7.60 dB      6:14 06-Entire Loss (Instrumental)
DR6       -0.11 dB    -7.94 dB      9:29 07-Countless Steps
DR6       -0.11 dB    -8.93 dB      8:00 08-Suspense Factor
DR6       -0.11 dB    -8.44 dB      8:52 09-The Path
--------------------------------------------------------------------------------
Number of tracks:  9
Official DR value: DR6
Samplerate:        44100 Hz
Channels:          2
Bits per sample:   16
Bitrate:           896 kbps
Codec:             FLAC
================================================================================

Код: Выделить всё
-----------------------
DON'T MODIFY THIS FILE
-----------------------
PERFORMER: auCDtect Task Manager, ver. 1.6.0 RC1 build 1.6.0.1
Copyright (c) 2008-2010 y-soft. All rights reserved
[url=http://y-soft.org]http://y-soft.org[/url]
ANALYZER: auCDtect: CD records authenticity detector, version 0.8.2
Copyright (c) 2004 Oleg Berngardt. All rights reserved.
Copyright (c) 2004 Alexander Djourik. All rights reserved.
FILE: 09 - The Path.flac
  Size: 59765424 Hash: 847B993BD4272F12D25785A438D178E6 Accuracy: -m8
  Conclusion: CDDA 99%
  Signature: 3FBE3BDBBF9E68938DB66CE4D99AE413835E4B2F
FILE: 08 - Suspense Factor.flac
  Size: 50781886 Hash: 2C3BC19417F153B45D852401713FAE41 Accuracy: -m8
  Conclusion: CDDA 100%
  Signature: CB23455F6F2394620FEE5C039C59206EDA702DB8
FILE: 07 - Countless Steps.flac
  Size: 67396067 Hash: F12B7410859CF887852CCA08F1374131 Accuracy: -m8
  Conclusion: CDDA 100%
  Signature: A6045722814EF588B5B328C02F3F700798771B58
FILE: 06 - Entire Loss (Instrumental).flac
  Size: 46085864 Hash: 113AC744C34AD10A1A9E24B12D857FC2 Accuracy: -m8
  Conclusion: CDDA 100%
  Signature: 56CEF6CF4CB1A04407BBA38F51398B918AE8C747
FILE: 05 - No More Stars.flac
  Size: 46162433 Hash: BE9BE9F1D11D894C88553099EA2A1609 Accuracy: -m8
  Conclusion: CDDA 100%
  Signature: 25C648069B31C06CA53DECA4D59D3A4FC255FF0F
FILE: 04 - Cryptic Flavor.flac
  Size: 53645318 Hash: 1009EDEE64E18881BCBB7FFF80CEADCF Accuracy: -m8
  Conclusion: CDDA 100%
  Signature: 5325C9E5AB41791F9B1B21141FE267F7C8007DC7
FILE: 03 - Tattered Sky.flac
  Size: 52973149 Hash: EBEDC42ED35117A66DFEC6C79BA5530E Accuracy: -m8
  Conclusion: CDDA 100%
  Signature: BFA095197EB4A2AB5AEE60799A30D071C85DBFD0
FILE: 02 - Fictionary.flac
  Size: 44329785 Hash: 91D3DF32BEE864A9DC9AE53A9F2B9BB4 Accuracy: -m8
  Conclusion: CDDA 100%
  Signature: A23231E9D7F41093EA10F6B35CBF535A839F9C4D
FILE: 01 - The Timer.flac
  Size: 32064361 Hash: A38F47B2BC0C92D60765CF57E1C75D04 Accuracy: -m8
  Conclusion: CDDA 100%
  Signature: 0BB62B538553F66C3CE049335A17EB44BC4CF4A1

Line-Up:
Oliver Wyss - Vocals
Kev Schibig - Guitars
Fabio Guglielmo - Guitars
Tobias Kolla - Bass
Thomas Limacher - Drums
Released 19 May 2019.

Правила, инструкции, FAQ!!!
Торрент  Добавлен [26 май 2019, 13:27] Скачать торрент Магнет ссылка
Скачать торрент
17.86 КБ

Статус
Проверен 
 
Размер  432.4 МБ
Приватный: Нет (DHT включён)
.torrent скачан  0
Как залить торрент? | Как скачать Torrent? | Как смотреть и слушать онлайн?  
Гость
 



Вернуться в Heavy, Power, Progressive (Metal)

Кто сейчас на конференции

Сейчас этот форум просматривают: нет зарегистрированных пользователей и гости: 1