(Progressive Rock) [WEB] Nine Skies - Discography (2017-2019), FLAC (tracks), lossless


Статистика раздачи
Размер: 757.24 МБ | Добавлен: 09 ноя 2019, 12:38 | Скачали: 1
Сидеров: 0  [0 байт/сек]    Личеров: 0  [0 байт/сек]

Сообщение Гость » 09 ноя 2019, 12:38

Nine Skies



Discography

Жанр: Progressive Rock
Носитель: WEB
Год издания: 2017-2019
Страна исполнителя (группы): France
Аудиокодек: FLAC (*.flac)
Тип рипа: tracks
Битрейт аудио: lossless
Продолжительность: 02:02:27
Источник (релизер): собственная покупка
Наличие сканов в содержимом раздачи: нет

01. Return Home [00:06:29]
02. Season of Greed [00:04:16]
03. Catharsis [00:02:53]
04. The Blind Widower [00:08:55]
05. Roses Never Hatch [00:06:35]
06. The Slight Snake [00:03:19]
07. Dust in Town [00:06:49]
08. The Blind Widower (Part II) [00:05:31]
09. Time for Them to Go [00:05:01]
10. A Way Back (Return home Part II) [00:05:10]
Nine Skies - Return Home Album Teaser
Released November 30, 2017
Источник: Bandcamp
Alexandre Boussacre: Vocals
Freddy Scott: Vocals
David Darnaud: Guitars
Eric Bouillette: Guitars / Piano on “The Blind Widower Part I”
Alexandre Lamia: Guitars / Keyboards
Anne Claire Rallo: Keyboards
Bernard Hery: Bass
Fab Galia: Drums
Laurent Benhamou: Saxophones
Penny Mac Morris: Flute on “The Blind Widower Part I & II”
Код: Выделить всё
-----------------------
DON'T MODIFY THIS FILE
-----------------------
PERFORMER: auCDtect Task Manager, ver. 1.6.0 RC1 build 1.6.0.1
Copyright (c) 2008-2010 y-soft. All rights reserved
[url=http://y-soft.org]http://y-soft.org[/url]
ANALYZER: auCDtect: CD records authenticity detector, version 0.8.2
Copyright (c) 2004 Oleg Berngardt. All rights reserved.
Copyright (c) 2004 Alexander Djourik. All rights reserved.
FILE: 10. A Way Back (Return home Part II).flac
  Size: 31315393 Hash: 2093365006F75BD6B664F765096ADB78 Accuracy: -m0
  Conclusion: CDDA 100%
  Signature: A6F9CE79CC77103E0C4654C6913F4879EDD0C18F
FILE: 09. Time for Them to Go.flac
  Size: 30815968 Hash: 006350E5C0EB67F8148962111A193A13 Accuracy: -m0
  Conclusion: CDDA 99%
  Signature: 4DBC2CA1D55CD548888AC1047A6BC9284179C9EB
FILE: 08. The Blind Widower (Part II).flac
  Size: 34720924 Hash: 2757A0B4415FBFE6FC37DFC57ECCB5CC Accuracy: -m0
  Conclusion: CDDA 100%
  Signature: 8545289571BB3AA5BF81C6D8CA03265400B2D4BF
FILE: 07. Dust in Town.flac
  Size: 42489703 Hash: E214B518CA3983680B47E1F028FDB1F9 Accuracy: -m0
  Conclusion: CDDA 100%
  Signature: E82272F6216E466CB240E25376F35F673F3E0594
FILE: 06. The Slight Snake.flac
  Size: 26515673 Hash: B82D82EA98B984A6F8274BB8B8FB4952 Accuracy: -m0
  Conclusion: CDDA 100%
  Signature: 9892D0B91F2ABA8828BF74B5A43D73AC11703A5F
FILE: 05. Roses Never Hatch.flac
  Size: 46958233 Hash: C8E0061EFA71CB73BCD51E9C131E1B4E Accuracy: -m0
  Conclusion: CDDA 100%
  Signature: 715E75A9BE5394510FDB6EB77D3EF0E094E2975A
FILE: 04. The Blind Widower.flac
  Size: 54141237 Hash: C4900ED9974924BC079B0EEBD02C39E7 Accuracy: -m0
  Conclusion: CDDA 100%
  Signature: 04D64CB1678E6AB2F9323C60FAD13E9C4A644D62
FILE: 03. Catharsis.flac
  Size: 16036237 Hash: F72DC4D774FE0CAE49C6CC82FEB30A96 Accuracy: -m0
  Conclusion: CDDA 100%
  Signature: 732A306EC66B3B621F0281C73BE308B5374D64FD
FILE: 02. Season of Greed.flac
  Size: 31017243 Hash: 59434250D620AB33779EBF25279B6569 Accuracy: -m0
  Conclusion: CDDA 100%
  Signature: 14A79CB26CD51363D96C164B90ACCD0D9FB84823
FILE: 01. Return Home.flac
  Size: 43376623 Hash: 3A0807B49A89EFD78E90C91147E01FFB Accuracy: -m0
  Conclusion: CDDA 100%
  Signature: 69B9099E25C03581F6D64F49EAC4FB19299D8CEF
Код: Выделить всё
foobar2000 1.3.12 / Dynamic Range Meter 1.1.1
log date: 2017-12-06 10:17:52
--------------------------------------------------------------------------------
Analyzed: Nine Skies / Return Home
--------------------------------------------------------------------------------
DR         Peak         RMS     Duration Track
--------------------------------------------------------------------------------
DR11      -0.01 dB   -13.31 dB      6:30 01-Return Home
DR10      -0.01 dB   -12.54 dB      4:16 02-Season of Greed
DR11      -0.01 dB   -15.51 dB      2:54 03-Catharsis
DR9       -0.01 dB   -13.38 dB      8:56 04-The Blind Widower
DR10      -0.01 dB   -12.86 dB      6:35 05-Roses Never Hatch
DR11      -0.01 dB   -12.05 dB      3:20 06-The Slight Snake
DR12      -0.01 dB   -15.66 dB      6:50 07-Dust in Town
DR10      -0.01 dB   -15.12 dB      5:31 08-The Blind Widower (Part II)
DR11      -0.01 dB   -14.60 dB      5:02 09-Time for Them to Go
DR11      -0.01 dB   -14.97 dB      5:10 10-A Way Back (Return home Part II)
--------------------------------------------------------------------------------
Number of tracks:  10
Official DR value: DR11
Samplerate:        44100 Hz
Channels:          2
Bits per sample:   16
Bitrate:           805 kbps
Codec:             FLAC
================================================================================
#777
01. Vestige [00:01:18]
02. Burn my brain [00:07:00]
03. Catharsis (Part II) [00:06:00]
04. The Thought Trader [00:07:10]
05. Alone (Sweetheart Grips intro) [00:04:45]
06. Sweetheart Grips [00:10:12]
07. Somewhere Inside Mankind [00:07:15]
08. Fields of Perdition [00:03:33]
09. Tyrant or Nothing [00:06:16]
10. Soldiers of Shame [00:06:56]
11. Flowers of Pain [00:02:10]
12. Isolation [00:04:44]
Released November 1, 2019
Источник: Anesthetize Productions
Alexandre Lamia - Guitar, Keyboards
Alienor Favier - Vocals
Anne-Claire Rallo - Keyboards
Bernard Hery - Bass
David Darnaud - Guitar
Eric Bouillette - Guitar
Fad Galia - Drums
Laurent Benhamou - Saxophones
With:
Clive Nolan (Pendragon, Arena) - Keyboards (1/2)
Craig Blundell (Steven Wilson, Steve Hackett, Frost*) - Drums (1/2)
Johnny Marter - Guitar (1/4)
Riccardo Romano (Steve Rothery, RanestRane) - Vocals (1/6)
Dave Foster (Steve Rothery, Panic Room, Mr. So & So) - Guitar (2/2)
Pat Ganger Sanders (Drifting Sun) - Keyboards (2/4)
Код: Выделить всё
-----------------------
DON'T MODIFY THIS FILE
-----------------------
PERFORMER: auCDtect Task Manager, ver. 1.6.0 RC1 build 1.6.0.1
Copyright (c) 2008-2010 y-soft. All rights reserved
[url=http://y-soft.org]http://y-soft.org[/url]
ANALYZER: auCDtect: CD records authenticity detector, version 0.8.2
Copyright (c) 2004 Oleg Berngardt. All rights reserved.
Copyright (c) 2004 Alexander Djourik. All rights reserved.
FILE: 12. Isolation.flac
  Size: 27544285 Hash: 7A4F55D6B32B6B6D8A73848CE56F21BE Accuracy: -m0
  Conclusion: CDDA 100%
  Signature: AFF88C35575CEC63CC02283E3C59816A4AF85C3B
FILE: 11. Flowers of Pain.flac
  Size: 13422975 Hash: 32739D4E523033B7DF8856F3BCBF62D7 Accuracy: -m0
  Conclusion: CDDA 100%
  Signature: 38771889D926B24FA26662100AEA21F3D1524691
FILE: 10. Soldiers of Shame.flac
  Size: 46267498 Hash: 733E149B8C4A0AA1D958FD380494D6A6 Accuracy: -m0
  Conclusion: CDDA 100%
  Signature: 0D3B782FFE25E1A7455240070748CFFA5576C268
FILE: 09. Tyrant or Nothing.flac
  Size: 40671417 Hash: 0D6FC2A6F23CD991828616406295232C Accuracy: -m0
  Conclusion: CDDA 100%
  Signature: 9D4C41F305A51C5A86601219E8C52C1F5D622775
FILE: 08. Fields of Perdition.flac
  Size: 24410627 Hash: 1437789539639964DF97BB885A76D826 Accuracy: -m0
  Conclusion: CDDA 100%
  Signature: E63D358B6A603041A93363C368AC39A1D3F9316A
FILE: 07. Somewhere Inside Mankind.flac
  Size: 51767201 Hash: 490D95AA800064A83CCF4BBF53E2CB99 Accuracy: -m0
  Conclusion: CDDA 100%
  Signature: A46015F72698EB36285880A00CFC5B3F7C945FC6
FILE: 06. Sweetheart Grips.flac
  Size: 65906679 Hash: 4E965BBF762C1A7F69F8D8EA184A422E Accuracy: -m0
  Conclusion: CDDA 100%
  Signature: EB38C6F22929DBC522875A0525436ED0E2F6FDBC
FILE: 05. Alone (Sweetheart Grips intro).flac
  Size: 24320959 Hash: F2624D1FBD743AE30BEF395ACD33CD65 Accuracy: -m0
  Conclusion: CDDA 100%
  Signature: 474545D751D75462FEE20935901D824B1EE19F82
FILE: 04. The Thought Trader.flac
  Size: 47303696 Hash: 5611E1FA8E0E1D67B516D7C68DF3C43C Accuracy: -m0
  Conclusion: CDDA 100%
  Signature: 82CECAB89F261ED090048E1549109F3DA7C0AFA4
FILE: 03. Catharsis (Part II).flac
  Size: 35647839 Hash: FFB8397EA7F5E7FFD24B4365F8405185 Accuracy: -m0
  Conclusion: CDDA 100%
  Signature: E1081FC79FCBFAF9A7B20A44C5649B397ECAA302
FILE: 02. Burn my brain.flac
  Size: 45730864 Hash: 8CD311C68252E05333F83CFE81282955 Accuracy: -m0
  Conclusion: CDDA 100%
  Signature: 7F582C03CC89B8471A118C285473D01D58D32D56
FILE: 01. Vestige.flac
  Size: 7823160 Hash: 00255C9C8B465D14111F5579868BCCBB Accuracy: -m0
  Conclusion: CDDA 99%
  Signature: 21E9F664D3A7786B4548BA06C9F0F9DA745B33A5
Код: Выделить всё
foobar2000 1.3.12 / Dynamic Range Meter 1.1.1
log date: 2019-11-02 08:35:00
--------------------------------------------------------------------------------
Analyzed: Nine Skies / Sweetheart Grips
--------------------------------------------------------------------------------
DR         Peak         RMS     Duration Track
--------------------------------------------------------------------------------
DR8        0.00 dB   -10.80 dB      1:18 01-Vestige
DR10       0.00 dB   -12.43 dB      7:00 02-Burn my brain
DR12       0.00 dB   -16.09 dB      6:00 03-Catharsis (Part II)
DR10      -0.11 dB   -12.58 dB      7:11 04-The Thought Trader
DR12      -0.81 dB   -15.66 dB      4:45 05-Alone (Sweetheart Grips intro)
DR10      -0.11 dB   -13.18 dB     10:13 06-Sweetheart Grips
DR10      -0.11 dB   -12.87 dB      7:15 07-Somewhere Inside Mankind
DR10      -0.11 dB   -12.37 dB      3:33 08-Fields of Perdition
DR10      -0.11 dB   -14.14 dB      6:17 09-Tyrant or Nothing
DR8       -0.11 dB   -12.08 dB      6:56 10-Soldiers of Shame
DR9       -0.11 dB   -11.65 dB      2:11 11-Flowers of Pain
DR7       -0.11 dB   -11.05 dB      4:44 12-Isolation
--------------------------------------------------------------------------------
Number of tracks:  12
Official DR value: DR10
Samplerate:        44100 Hz
Channels:          2
Bits per sample:   16
Bitrate:           772 kbps
Codec:             FLAC
================================================================================
Правила, инструкции, FAQ!!!
Торрент  Добавлен [09 ноя 2019, 12:38] Скачать торрент Магнет ссылка
Скачать торрент
17.72 КБ

Статус
Проверен 
 
Размер  757.24 МБ
Приватный: Нет (DHT включён)
.torrent скачан  1
Как залить торрент? | Как скачать Torrent? | Как смотреть и слушать онлайн?  
Гость
 


Вернуться в Progressive & Art-Rock

Кто сейчас на конференции

Сейчас этот форум просматривают: нет зарегистрированных пользователей и гости: 3