(Progressive Rock) [CD] Rain - Rain - 1972 (Remastered 2008), FLAC (image+.cue), lossless


Статистика раздачи
Размер: 266.7 МБ | Добавлен: 09 ноя 2019, 12:39 | Скачали: 2
Сидеров: 2  [0 байт/сек]    Личеров: 0  [0 байт/сек]

Сообщение Гость » 09 ноя 2019, 12:39

Rain - Rain

Жанр: Progressive Rock, Psychedelic Rock
Носитель: CD
Страна-производитель диска (релиза): UK
Год издания: 1972 (2008)
Издатель (лейбл): Sunbeam Records
Номер по каталогу: SBRCD 5054
Страна исполнителя (группы): USA
Аудиокодек: FLAC (*.flac)
Тип рипа: image+.cue
Продолжительность: 42:19
Источник: собственный рип
Наличие сканов в содержимом раздачи: да
Треклист:
01. Can You Help Me Sing My Song? 1:57
02. To A Dreamer 4:01
03. Mother's Evil Child 3:04
04. Love Me Still 4:05
05. All Your Days Are Long 6:34
06. Let Our Hopes Run Our Dreams 3:36
07. Song To Barbara 5:21
08. You Take Me Higher 2:27
09. He Could Have Known 5:46
10. As I Played My Song (For You) 3:23
Bonus Track:
11. Springtime 2:06
Код: Выделить всё
Exact Audio Copy V1.3 from 2. September 2016
Отчёт EAC об извлечении, выполненном 4. ноября 2019, 12:12
Rain / Rain
Дисковод: ASUS    DRW-24B3ST   Adapter: 1  ID: 0
Режим чтения                 : Достоверность
Использование точного потока : Да
Отключение кэша аудио        : Да
Использование указателей C2  : Нет
Коррекция смещения при чтении                     : 6
Способность читать области Lead-in и Lead-out     : Нет
Заполнение пропущенных сэмплов тишиной            : Да
Удаление блоков с тишиной в начале и конце        : Нет
При вычислениях CRC использовались нулевые сэмплы : Да
Интерфейс                                         : Встроенный Win32-интерфейс для Win NT/2000
Выходной формат          : Пользовательский кодировщик
Выбранный битрейт        : 1024 kBit/s
Качество                 : Высокий
Добавление ID3-тега      : Нет
Утилита сжатия           : C:\Program Files (x86)\Exact Audio Copy\Flac\flac.exe
Дополнительные параметры : -V -8 -T "Date=%year%" -T "Genre=%genre%" %source%
TOC извлечённого CD
     Трек |   Старт  | Длительность | Начальный сектор | Конечный сектор
    ---------------------------------------------------------------------
       1  |  0:00.00 |    1:56.55   |           0      |       8754
       2  |  1:56.55 |    4:01.29   |        8755      |      26858
       3  |  5:58.09 |    3:04.00   |       26859      |      40658
       4  |  9:02.09 |    4:04.67   |       40659      |      59025
       5  | 13:07.01 |    6:34.21   |       59026      |      88596
       6  | 19:41.22 |    3:35.48   |       88597      |     104769
       7  | 23:16.70 |    5:20.67   |      104770      |     128836
       8  | 28:37.62 |    2:27.17   |      128837      |     139878
       9  | 31:05.04 |    5:45.54   |      139879      |     165807
      10  | 36:50.58 |    3:22.48   |      165808      |     181005
      11  | 40:13.31 |    2:05.57   |      181006      |     190437
Характеристики диапазона извлечения и сообщения об ошибках
Выбранный диапазон
     Имя файла E:\Torrents-seed\Rain - 1972\Rain - Rain.wav
     Пиковый уровень 98.6 %
     Скорость извлечения 8.2 X
     Качество диапазона 100.0 %
     CRC теста 155ACFC6
     CRC копии 155ACFC6
     Копирование... OK
Ошибок не произошло
AccurateRip: сводка
Трек  1  : извлечено точно (доверие 2)  [9D363552]  (AR v1)
Трек  2  : извлечено точно (доверие 2)  [1C780E76]  (AR v1)
Трек  3  : извлечено точно (доверие 2)  [5C90A3B0]  (AR v1)
Трек  4  : извлечено точно (доверие 2)  [BA2F0FF4]  (AR v1)
Трек  5  : извлечено точно (доверие 2)  [523D01D6]  (AR v1)
Трек  6  : извлечено точно (доверие 2)  [1D1FE89F]  (AR v1)
Трек  7  : извлечено точно (доверие 2)  [A797D0D2]  (AR v1)
Трек  8  : извлечено точно (доверие 2)  [986E98A3]  (AR v1)
Трек  9  : извлечено точно (доверие 2)  [1DF2EACF]  (AR v1)
Трек 10  : извлечено точно (доверие 2)  [0A87994C]  (AR v1)
Трек 11  : извлечено точно (доверие 2)  [91ADE928]  (AR v1)
Все треки извлечены точно
Конец отчёта
==== Контрольная сумма отчёта F18424C08A4C7B53F7FC50028DA38819F1AD6E8327AC6FC3D8A5903602BCBFFD ====
Код: Выделить всё
REM GENRE "Progressive Rock"
REM DATE 1972
REM DISCID 9709EB0B
REM COMMENT "ExactAudioCopy v1.3"
PERFORMER "Rain"
TITLE "Rain"
REM COMPOSER ""
FILE "Rain - Rain.flac" WAVE
  TRACK 01 AUDIO
    TITLE "Can You Help Me Sing My Song?"
    PERFORMER "Rain"
    REM COMPOSER ""
    INDEX 01 00:00:00
  TRACK 02 AUDIO
    TITLE "To A Dreamer"
    PERFORMER "Rain"
    REM COMPOSER ""
    INDEX 00 01:54:72
    INDEX 01 01:56:55
  TRACK 03 AUDIO
    TITLE "Mother's Evil Child"
    PERFORMER "Rain"
    REM COMPOSER ""
    INDEX 00 05:56:26
    INDEX 01 05:58:09
  TRACK 04 AUDIO
    TITLE "Love Me Still"
    PERFORMER "Rain"
    REM COMPOSER ""
    INDEX 00 09:00:26
    INDEX 01 09:02:09
  TRACK 05 AUDIO
    TITLE "All Your Days Are Long"
    PERFORMER "Rain"
    REM COMPOSER ""
    INDEX 00 13:05:18
    INDEX 01 13:07:01
  TRACK 06 AUDIO
    TITLE "Let Our Hopes Run Our Dreams"
    PERFORMER "Rain"
    REM COMPOSER ""
    INDEX 00 19:39:39
    INDEX 01 19:41:22
  TRACK 07 AUDIO
    TITLE "Song To Barbara"
    PERFORMER "Rain"
    REM COMPOSER ""
    INDEX 00 23:15:12
    INDEX 01 23:16:70
  TRACK 08 AUDIO
    TITLE "You Take Me Higher"
    PERFORMER "Rain"
    REM COMPOSER ""
    INDEX 00 28:36:04
    INDEX 01 28:37:62
  TRACK 09 AUDIO
    TITLE "He Could Have Known"
    PERFORMER "Rain"
    REM COMPOSER ""
    INDEX 00 31:03:21
    INDEX 01 31:05:04
  TRACK 10 AUDIO
    TITLE "As I Played My Song (For You)"
    PERFORMER "Rain"
    REM COMPOSER ""
    INDEX 01 36:50:58
  TRACK 11 AUDIO
    TITLE "Springtime (bonus track)"
    PERFORMER "Rain"
    REM COMPOSER ""
    INDEX 00 40:09:48
    INDEX 01 40:13:31
Код: Выделить всё
foobar2000 1.3.17 / Dynamic Range Meter 1.1.1
log date: 2019-11-04 12:13:03
--------------------------------------------------------------------------------
Analyzed: Rain / Rain
--------------------------------------------------------------------------------
DR         Peak         RMS     Duration Track
--------------------------------------------------------------------------------
DR10      -3.87 dB   -16.05 dB      1:57 01-Can You Help Me Sing My Song?
DR12      -0.12 dB   -14.79 dB      4:01 02-To A Dreamer
DR10      -0.50 dB   -13.00 dB      3:04 03-Mother's Evil Child
DR11      -2.23 dB   -15.23 dB      4:05 04-Love Me Still
DR12      -0.13 dB   -15.55 dB      6:34 05-All Your Days Are Long
DR12      -1.47 dB   -15.88 dB      3:36 06-Let Our Hopes Run Our Dreams
DR11      -4.14 dB   -18.79 dB      5:21 07-Song To Barbara
DR11      -0.82 dB   -15.28 dB      2:27 08-You Take Me Higher
DR11      -1.82 dB   -15.36 dB      5:46 09-He Could Have Known
DR13      -2.21 dB   -19.74 dB      3:23 10-As I Played My Song (For You)
DR12      -0.12 dB   -13.41 dB      2:06 11-Springtime (bonus track)
--------------------------------------------------------------------------------
Number of tracks:  11
Official DR value: DR11
Samplerate:        44100 Hz
Channels:          2
Bits per sample:   16
Bitrate:           730 kbps
Codec:             FLAC
================================================================================
Bass Guitar, Vocals – Ric Crinitti
Lead Guitar, Vocals – Michael Kennedy
Vocals, Drums, Percussion, Acoustic Guitar – Frank Schallis
Vocals, Organ, Piano, Celeste – Cobb Bussinger
Produced by Jeff Hest
Правила, инструкции, FAQ!!!
Торрент  Добавлен [09 ноя 2019, 12:39] Скачать торрент Магнет ссылка
Скачать торрент
11.42 КБ

Статус
Проверен 
 
Размер  266.7 МБ
Приватный: Нет (DHT включён)
.torrent скачан  2
Как залить торрент? | Как скачать Torrent? | Как смотреть и слушать онлайн?  
Гость
 


Вернуться в Progressive & Art-Rock

Кто сейчас на конференции

Сейчас этот форум просматривают: нет зарегистрированных пользователей и гости: 1