(Progressive Rock) [WEB] Saiga Antelope - The Grand Endeavor - 2019, FLAC (tracks), lossless


Статистика раздачи
Размер: 329.28 МБ | Добавлен: 09 ноя 2019, 12:39 | Скачали: 0
Сидеров: 0  [0 байт/сек]    Личеров: 0  [0 байт/сек]

Сообщение Гость » 09 ноя 2019, 12:39

Saiga Antelope / The Grand Endeavor
Жанр: Progressive Rock
Носитель: WEB
Год издания: 2019
Страна исполнителя (группы): Norway
Аудиокодек: FLAC (*.flac)
Тип рипа: tracks
Продолжительность: 58:31
Источник: собственная покупка
Наличие сканов в содержимом раздачи: нет

01. Hollow Tree [00:05:02]
02. Endeavor [00:03:49]
03. Run 'round the Water [00:04:11]
04. Ghost of Narcissus [00:09:58]
05. The Silent Frame [00:03:42]
06. The Haze [00:07:14]
07. Conception [00:04:14]
08. Good Mourning [00:02:21]
09. Circadian Rhythm [00:12:01]
10. Daniel [00:05:59]
Released October 18, 2019
Sindre André Abelvik - Vocals, Backing Vocals, Ambience, Men’s Choir, Acoustic Guitars
Jakob Nikolaisen Gåre - Vocals, Ghost Vocals, Piano, Electric Piano, Bass, Seaboard, Roland rs-09, MIDI Synths, Electric Drums, Cajun, Clapping and Snapping, Whispering
Kaya Marie Abelvik - Vocals, Backing Vocals
Daniel Skjøtskift Johannessen - Drums, Percussion, Wind Ambience, Cymbals, 12-string Acoustic Guitar, Men’s Choir
Magne Seland - Electric Guitars
Finn (Logic Pro X) - Cajun
Eivind Schulstad - Electric Guitars
Kyle (Logic Pro X) - Electric Drums
Odd Ivar Sande - Acoustic Guitars, Men’s Choir
Mari Tveiten - Speaker Voice
Gavin (Logic Pro X) - Electric Drums
Код: Выделить всё
-----------------------
DON'T MODIFY THIS FILE
-----------------------
PERFORMER: auCDtect Task Manager, ver. 1.6.0 RC1 build 1.6.0.1
Copyright (c) 2008-2010 y-soft. All rights reserved
[url=http://y-soft.org]http://y-soft.org[/url]
ANALYZER: auCDtect: CD records authenticity detector, version 0.8.2
Copyright (c) 2004 Oleg Berngardt. All rights reserved.
Copyright (c) 2004 Alexander Djourik. All rights reserved.
FILE: Saiga Antelope - The Grand Endeavor - 10 Daniel.flac
  Size: 29914945 Hash: 29DB40915CA2C23D14D72FE00E2E2D4C Accuracy: -m0
  Conclusion: CDDA 100%
  Signature: 687852CD3198FD13692435B71E321BEF4AE847BB
FILE: Saiga Antelope - The Grand Endeavor - 09 Circadian Rhythm.flac
  Size: 69098829 Hash: 4863D51883C67B969DD4E16796DCC725 Accuracy: -m0
  Conclusion: CDDA 100%
  Signature: C7C39C16A76B4292B06D3EF88243D1882F37D61B
FILE: Saiga Antelope - The Grand Endeavor - 08 Good Mourning.flac
  Size: 15702360 Hash: 05F3D98107CCBA7F3546D1CA26D9079D Accuracy: -m0
  Conclusion: CDDA 99%
  Signature: B1FEAFB82FBA4CB58F0C392E5F7E780C0086982F
FILE: Saiga Antelope - The Grand Endeavor - 07 Conception.flac
  Size: 24927432 Hash: ACBDBC2661A05554AE1AFB9EF53CBB6A Accuracy: -m0
  Conclusion: CDDA 100%
  Signature: 5BD554E9C5DD65B838FB20D32FB467944241FE47
FILE: Saiga Antelope - The Grand Endeavor - 06 The Haze.flac
  Size: 41842455 Hash: 8702284443C90F8F02CC04505350E32D Accuracy: -m0
  Conclusion: CDDA 99%
  Signature: 46C2927B69A3B58A89F2CE0FCA8D98F3B47A6245
FILE: Saiga Antelope - The Grand Endeavor - 05 The Silent Frame.flac
  Size: 20986829 Hash: 6B442C5768B78883DE7806971B00EE17 Accuracy: -m0
  Conclusion: CDDA 100%
  Signature: FB48356519A4BF7149EACB91123F4ACA27B17C95
FILE: Saiga Antelope - The Grand Endeavor - 04 Ghost of Narcissus.flac
  Size: 63265488 Hash: 42A4DDF5405DE9BD72F9DFC417484066 Accuracy: -m0
  Conclusion: CDDA 99%
  Signature: 33A0FDD0EDB4F94E34EC98F85505B9A8C41E4FBA
FILE: Saiga Antelope - The Grand Endeavor - 03 Run 'round the Water.flac
  Size: 25151228 Hash: FEAB75FBB9692A93B06A5130726C28A9 Accuracy: -m0
  Conclusion: CDDA 99%
  Signature: 911AFFD7517CD1D3FE1780EB02ECBDF0B68D9FC0
FILE: Saiga Antelope - The Grand Endeavor - 02 Endeavor.flac
  Size: 23226773 Hash: 333D42E11439C545C49E8693A913C6B2 Accuracy: -m0
  Conclusion: CDDA 100%
  Signature: C83B8C7DCCFBB64FBF57CB19334E91A9DC0CA175
FILE: Saiga Antelope - The Grand Endeavor - 01 Hollow Tree.flac
  Size: 28514128 Hash: ADE721E928E6037D30EA6FE79D15AB64 Accuracy: -m0
  Conclusion: CDDA 100%
  Signature: A660FF0137CE15B6C788DD44477B85A6810925FC
Код: Выделить всё
foobar2000 1.3.12 / Dynamic Range Meter 1.1.1
log date: 2019-11-04 09:00:53
--------------------------------------------------------------------------------
Analyzed: Saiga Antelope / The Grand Endeavor
--------------------------------------------------------------------------------
DR         Peak         RMS     Duration Track
--------------------------------------------------------------------------------
DR6        0.00 dB    -7.68 dB      5:02 01-Hollow Tree
DR6        0.00 dB    -8.72 dB      3:49 02-Endeavor
DR6        0.00 dB    -8.70 dB      4:11 03-Run 'round the Water
DR6        0.00 dB    -8.17 dB      9:58 04-Ghost of Narcissus
DR7        0.00 dB   -10.08 dB      3:42 05-The Silent Frame
DR6        0.00 dB    -9.46 dB      7:14 06-The Haze
DR6        0.00 dB    -8.81 dB      4:14 07-Conception
DR6        0.00 dB    -7.51 dB      2:21 08-Good Mourning
DR7        0.00 dB   -10.12 dB     12:01 09-Circadian Rhythm
DR7        0.00 dB   -11.51 dB      5:59 10-Daniel
--------------------------------------------------------------------------------
Number of tracks:  10
Official DR value: DR6
Samplerate:        44100 Hz
Channels:          2
Bits per sample:   16
Bitrate:           664 kbps
Codec:             FLAC
================================================================================
Правила, инструкции, FAQ!!!
Торрент  Добавлен [09 ноя 2019, 12:39] Скачать торрент Магнет ссылка
Скачать торрент
13.91 КБ

Статус
Проверен 
 
Размер  329.28 МБ
Приватный: Нет (DHT включён)
.torrent скачан  0
Как залить торрент? | Как скачать Torrent? | Как смотреть и слушать онлайн?  
Гость
 


Вернуться в Progressive & Art-Rock

Кто сейчас на конференции

Сейчас этот форум просматривают: нет зарегистрированных пользователей и гости: 3