(Progressive Rock) [WEB] The Security Project (Trey Gunn) - Дискография (6 релизов) - 2016-2019, FLAC (tracks), lossless


Статистика раздачи
Размер: 1.46 ГБ | Добавлен: 09 ноя 2019, 12:39 | Скачали: 1
Сидеров: 0  [0 байт/сек]    Личеров: 0  [0 байт/сек]

Сообщение Гость » 09 ноя 2019, 12:39


The Security Project



Дискография


Цитата:
В принципе, The Security Project – это кавер-бэнд, но не совсем обычный. Играя музыку Гэбриэла, ансамбль широко применяет новые аранжировки и вводит свои элементы, сохраняя основные линии оригинала. В основном он исполняет композиции из ранних альбомов Гэбриэла (первых четырех), да и назван в честь двадцать пятой годовщины со дня выхода гэбриэловского альбома Security. Именно тогда, в 2012 году и возник The Security Project. Его образовали опытнейший ударник Джерри Маротта, десять лет гастролировавший вместе с Гэбриэлом и игравший в тех самых первых четырех альбомах английского музыканта, тач-гитарист из Сиэттла Трей Ганн, бывший участник King Crimson и основатель компании 7d Media, издающей альбомы The Security Project, клавишник Дэвид Джеймисон, работающий также в трибьют-бэнде Pink Floyd под названием Beyond The Wall и британский гитарист Майкл Коцци, игравший ранее в группе Shriekback и живущий сейчас, как и Ганн, в Сиэттле. С 2016 года к The Security Project присоединилась американская вокалистка Хэппи Роудс, обладательница редкого по диапазону четырехоктавного голоса. С тех пор в репертуаре коллектива появились также песни другого выдающегося музыканта из Великобритании – певицы и композитора Кейт Буш.


Жанр: Progressive Rock
Носитель: WEB
Год издания: 2016-2019
Страна исполнителя (группы): United States
Аудиокодек: FLAC (*.flac)
Тип рипа: tracks
Источник: собственная покупка
Наличие сканов в содержимом раздачи: нет
Tracklist:
01. Lay Your Hands On Me (6:03)
02. I Don't Remember (4:07)
03. No Self Control (4:14)
04. The Family And The Fishing Net (7:18)
05. I Have The Touch (4:39)
06. Intruder (4:28)
07. The Rhythm Of The Heat (4:46)
08. San Jacinto (7:46)
09. Games Without Frontiers / Of These, Hope (8:13)
10. Here Comes The Flood (7:35)
11. Back in N.Y.C (5:44)
12. Biko (6:00)
Line-up / Musicians:
Jerry Marotta – Drums & Percussion, B. Vocals, Lead Vocal (tr.11)
Trey Gunn – Touch Guitar, B. Vocals
Brian Cummins – Lead Vocals
Michael Cozzi – Guitar, B. Vocals
David Jameson – Keyboards, Eigenharp
Код: Выделить всё
-----------------------
DON'T MODIFY THIS FILE
-----------------------
PERFORMER: auCDtect Task Manager, ver. 1.6.0 RC1 build 1.6.0.1
Copyright (c) 2008-2010 y-soft. All rights reserved
[url=http://y-soft.org]http://y-soft.org[/url]
ANALYZER: auCDtect: CD records authenticity detector, version 0.8.2
Copyright (c) 2004 Oleg Berngardt. All rights reserved.
Copyright (c) 2004 Alexander Djourik. All rights reserved.
FILE: 12. Biko.flac
  Size: 34999008 Hash: 9AD665966F5C87A11FB00C3A7D0DFA81 Accuracy: -m0
  Conclusion: MPEG 85%
  Signature: 31B10ABF0EB24EADB2C2782B42098C98C03550EE
FILE: 11. Back in N.Y.C.flac
  Size: 42970837 Hash: 5EF3A19C622D5697A3030B824B31B29D Accuracy: -m0
  Conclusion: ???
  Signature: 1A07A08463D4739967842FB1ED08AB2C76E43FAE
FILE: 10. Here Comes The Flood.flac
  Size: 36786273 Hash: 44010ECA6EE8CE83C08A89D5498E15B4 Accuracy: -m0
  Conclusion: CDDA 100%
  Signature: 10FAE3AADBF70AFFE4CEBA9F207BF15FEA188BD2
FILE: 09. Games Without Frontiers  Of These, Hope.flac
  Size: 53330466 Hash: FEBCA4D0DF8B77687C3D88D2A90FBF20 Accuracy: -m0
  Conclusion: MPEG 79%
  Signature: C42E9F3404058A26A6384CB8689E6BDC009F00BC
FILE: 08. San Jacinto.flac
  Size: 46334806 Hash: 48DFAD9EA1588EFFCA2ECB2888F4D813 Accuracy: -m0
  Conclusion: CDDA 43%
  Signature: C55990D4BEC98F5CF6F7AD58FA92066268F4BB1F
FILE: 07. The Rhythm Of The Heat.flac
  Size: 28363352 Hash: F2C43254CF7A82A4A82BE73EE9452DCF Accuracy: -m0
  Conclusion: MPEG 95%
  Signature: A88D06735AFC50FBFB5B2E8793E5243658113015
FILE: 06. Intruder.flac
  Size: 28710140 Hash: D828AFCAA8FF62B43FDF719363C6C2EC Accuracy: -m0
  Conclusion: CDDA 99%
  Signature: 5399AB601665B5DEFBE835FCC8DA3E0930F3561B
FILE: 05. I Have The Touch.flac
  Size: 34533851 Hash: B923276E83DBE9994466E824E4CCED3B Accuracy: -m0
  Conclusion: MPEG 85%
  Signature: 2D2DA7D64414329E35C566FA183FB4E1F4FB9E0E
FILE: 04. The Family And The Fishing Net.flac
  Size: 46107463 Hash: F3171D9BCC89AB0012ABB12F122D0C69 Accuracy: -m0
  Conclusion: MPEG 95%
  Signature: BF1653C00E88952801CFC6D86F5B106FC9D76F2E
FILE: 03. No Self Control.flac
  Size: 27930944 Hash: 30ED582624C4141DBC4AE449AAAA9E98 Accuracy: -m0
  Conclusion: MPEG 85%
  Signature: F55A16764FA18C3D20D78BDE99C0CF6420978481
FILE: 02. I Don't Remember.flac
  Size: 30135050 Hash: 675A49AD934769136BE205DFCAF5A693 Accuracy: -m0
  Conclusion: MPEG 100%
  Signature: 7DACA9F2423C30DCDE817BFB3713030EACFA489D
FILE: 01. Lay Your Hands On Me.flac
  Size: 34687403 Hash: 410E5B8FB78414140868E75716B1D1B6 Accuracy: -m0
  Conclusion: CDDA 100%
  Signature: AC9C18536466F77E22ABB569B9F0B2976EE096C3


Код: Выделить всё
foobar2000 1.3.9 / Dynamic Range Meter 1.1.1
log date: 2019-11-04 17:19:17
--------------------------------------------------------------------------------
Analyzed: Security Project / Live 1
--------------------------------------------------------------------------------
DR         Peak         RMS     Duration Track
--------------------------------------------------------------------------------
DR7       -0.03 dB   -10.82 dB      6:03 01-Lay Your Hands On Me
DR7       -0.03 dB    -8.22 dB      4:07 02-I Don't Remember
DR7       -0.15 dB   -10.50 dB      4:14 03-No Self Control
DR7       -0.10 dB    -9.99 dB      7:18 04-The Family And The Fishing Net
DR7        0.00 dB    -8.90 dB      4:39 05-I Have The Touch
DR7        0.00 dB    -9.29 dB      4:28 06-Intruder
DR7       -0.17 dB   -11.02 dB      4:46 07-The Rhythm Of The Heat
DR8       -0.15 dB   -11.89 dB      7:46 08-San Jacinto
DR8       -0.17 dB   -12.00 dB      8:13 09-Games Without Frontiers / Of These, Hope
DR9       -0.17 dB   -14.00 dB      7:35 10-Here Comes The Flood
DR6        0.00 dB    -7.94 dB      5:44 11-Back in N.Y.C
DR8       -0.06 dB   -10.17 dB      6:00 12-Biko
--------------------------------------------------------------------------------
Number of tracks:  12
Official DR value: DR7
Samplerate:        44100 Hz
Channels:          2
Bits per sample:   16
Bitrate:           776 kbps
Codec:             FLAC
================================================================================
#777Tracklist:
01. Family Snapshot (4:44)
02. Moribund The Burgermeister (4:23)
03. Humdrum (3:53)
04. Mercy Street (4:42)
05. Wallflower (6:14)
06. White Shadow (5:02)
07. Father, Son (3:57)
08. The Lamb Lies Down On Broadway (5:40)
09. Fly On A Windshield (4:51)
10. On The Air (5:22)
Line-up / Musicians:
Jerry Marotta – Drums & Percussion, B. Vocals
Trey Gunn – Touch Guitar, B. Vocals
Brian Cummins – Lead Vocals, Acoustic Guitar
Michael Cozzi – Guitar, B. Vocals
David Jameson – Keyboards, Eigenharp
Код: Выделить всё
-----------------------
DON'T MODIFY THIS FILE
-----------------------
PERFORMER: auCDtect Task Manager, ver. 1.6.0 RC1 build 1.6.0.1
Copyright (c) 2008-2010 y-soft. All rights reserved
[url=http://y-soft.org]http://y-soft.org[/url]
ANALYZER: auCDtect: CD records authenticity detector, version 0.8.2
Copyright (c) 2004 Oleg Berngardt. All rights reserved.
Copyright (c) 2004 Alexander Djourik. All rights reserved.
FILE: 10. On The Air.flac
  Size: 38488271 Hash: D6983F3950DEC762E53D765DC828EA96 Accuracy: -m0
  Conclusion: CDDA 100%
  Signature: EBACFDB8F5677B80CE8CCADA0D141B08611A0759
FILE: 09. Fly On A Windshield.flac
  Size: 32282638 Hash: 180A44D367F70D8D91B98C22CCF65C2D Accuracy: -m0
  Conclusion: CDDA 100%
  Signature: EC575901F7B4DF87D6B6A739A2038872B9A3426B
FILE: 08. The Lamb Lies Down On Broadway.flac
  Size: 38207204 Hash: 0610345D8A18D35E66F83F525A60CDFA Accuracy: -m0
  Conclusion: CDDA 100%
  Signature: 215E4A34A47A7538804BF76BF6EBF316C3D2D3FA
FILE: 07. Father, Son.flac
  Size: 17771628 Hash: ECC31789C4BBF8B84E46C3B3ACB1F0D4 Accuracy: -m0
  Conclusion: CDDA 100%
  Signature: 366D0965E07FB273175332C337CFF70BED84504F
FILE: 06. White Shadow.flac
  Size: 34173517 Hash: 75907371C53BB8E709AFEDFDBF83B886 Accuracy: -m0
  Conclusion: MPEG 100%
  Signature: 138CCBA4D0C9C4293BCE165A9A4ACF44FCA12B32
FILE: 05. Wallflower.flac
  Size: 37286516 Hash: 20F45CD8D9D484DE877312132FBF939A Accuracy: -m0
  Conclusion: MPEG 73%
  Signature: 31B652A60B9C6B0E0E7CA9B6302CD00205628576
FILE: 04. Mercy Street.flac
  Size: 25513514 Hash: 0B9DD574EA160DA2001A806E9DDC1628 Accuracy: -m0
  Conclusion: CDDA 100%
  Signature: 5E081BA0C80A52F7D2B45C50A7CE088551636AC6
FILE: 03. Humdrum.flac
  Size: 24670891 Hash: F7643FF2CD598C6FF01B25EE68EBD88B Accuracy: -m0
  Conclusion: MPEG 95%
  Signature: E665B6E3C86797C04E8D903DC0A4060D7508EE04
FILE: 02. Moribund The Burgermeister.flac
  Size: 27593130 Hash: BF316DBB6304BB91E0E9CDAB7EAF0739 Accuracy: -m0
  Conclusion: MPEG 79%
  Signature: 1790796A55948BE5C260A03A5644C0A30B46040D
FILE: 01. Family Snapshot.flac
  Size: 25739537 Hash: FC0675BE755CE20699B4AFDE50BF9DD8 Accuracy: -m0
  Conclusion: CDDA 100%
  Signature: FBC4593CFA97F4611259F7253504EA424C62BFDD


Код: Выделить всё
foobar2000 1.3.9 / Dynamic Range Meter 1.1.1
log date: 2019-11-04 17:19:38
--------------------------------------------------------------------------------
Analyzed: Security Project / Live 2
--------------------------------------------------------------------------------
DR         Peak         RMS     Duration Track
--------------------------------------------------------------------------------
DR8        0.00 dB   -11.79 dB      4:44 01-Family Snapshot
DR8       -0.10 dB   -11.58 dB      4:23 02-Moribund The Burgermeister
DR8       -0.16 dB   -10.76 dB      3:53 03-Humdrum
DR11      -0.57 dB   -14.94 dB      4:42 04-Mercy Street
DR8       -0.17 dB   -10.91 dB      6:14 05-Wallflower
DR7       -0.13 dB    -8.39 dB      5:02 06-White Shadow
DR13      -0.25 dB   -15.98 dB      3:57 07-Father, Son
DR7       -0.14 dB    -9.16 dB      5:40 08-The Lamb Lies Down On Broadway
DR9       -0.13 dB   -11.75 dB      4:51 09-Fly On A Windshield
DR7        0.00 dB    -8.86 dB      5:22 10-On The Air
--------------------------------------------------------------------------------
Number of tracks:  10
Official DR value: DR9
Samplerate:        44100 Hz
Channels:          2
Bits per sample:   16
Bitrate:           955 kbps
Codec:             FLAC
================================================================================
#777Tracklist:
01. Games Without Frontiers / Of These, Hope (with Happy Rhodes) (8:14)
02. No Self Control (with Happy Rhodes) (4:16)
03. I Have The Touch (with Happy Rhodes) (4:39)
04. Mother Stands For Comfort (with Happy Rhodes) (3:39)
05. Rhythm Of The Heat (with Happy Rhodes) (4:59)
Line-up / Musicians:
Jerry Marotta - drums, b.vox
Trey Gunn - touch guitar, fretless, b.vox
Happy Rhodes - vocals
Michael Cozzi - guitar, b.vox
David Jameson - keyboards, Eigenharp
Код: Выделить всё
-----------------------
DON'T MODIFY THIS FILE
-----------------------
PERFORMER: auCDtect Task Manager, ver. 1.6.0 RC1 build 1.6.0.1
Copyright (c) 2008-2010 y-soft. All rights reserved
[url=http://y-soft.org]http://y-soft.org[/url]
ANALYZER: auCDtect: CD records authenticity detector, version 0.8.2
Copyright (c) 2004 Oleg Berngardt. All rights reserved.
Copyright (c) 2004 Alexander Djourik. All rights reserved.
FILE: 05. Rhythm Of The Heat (with Happy Rhodes).flac
  Size: 29284895 Hash: 86012E5E35A7E2F433354137517F873F Accuracy: -m0
  Conclusion: CDDA 100%
  Signature: CC2EFA9015BA4EB5C504ABD1F59574E5D6D7DBAD
FILE: 04. Mother Stands For Comfort (with Happy Rhodes).flac
  Size: 19187230 Hash: 05CCCB00A00ED306FA8C169FDDBC66BE Accuracy: -m0
  Conclusion: CDDA 100%
  Signature: DF2FE706665155B06C123527DEED98A5A1BF1098
FILE: 03. I Have The Touch (with Happy Rhodes).flac
  Size: 34491610 Hash: 9BF045B8B4D0508397CD6BD3864DEE99 Accuracy: -m0
  Conclusion: CDDA 100%
  Signature: 04E9A16CA50F5D7B56122625522E2B817B8ED9ED
FILE: 02. No Self Control (with Happy Rhodes).flac
  Size: 28184519 Hash: 96FB38427D451939D8A6856B239AC135 Accuracy: -m0
  Conclusion: CDDA 100%
  Signature: A09CE04C3FEA00F55D7F4C02738D0220BAA9A5C7
FILE: 01. Games Without Frontiers  Of These, Hope  (with Happy Rhodes).flac
  Size: 54637158 Hash: 265C968046BE2181285D6747FC919C55 Accuracy: -m0
  Conclusion: CDDA 100%
  Signature: 9A895BF55EEAFBB268EF491DBC923B3AA8973EB7
Код: Выделить всё
foobar2000 1.3.9 / Dynamic Range Meter 1.1.1
log date: 2019-11-04 17:20:29
--------------------------------------------------------------------------------
Analyzed: Security Project / Five
--------------------------------------------------------------------------------
DR         Peak         RMS     Duration Track
--------------------------------------------------------------------------------
DR9        0.00 dB   -11.66 dB      8:14 01-Games Without Frontiers / Of These, Hope  (with Happy Rhodes)
DR7        0.00 dB   -10.22 dB      4:16 02-No Self Control (with Happy Rhodes)
DR8        0.00 dB    -9.40 dB      4:39 03-I Have The Touch (with Happy Rhodes)
DR7        0.00 dB    -9.16 dB      3:39 04-Mother Stands For Comfort (with Happy Rhodes)
DR6        0.00 dB    -9.38 dB      4:59 05-Rhythm Of The Heat (with Happy Rhodes)
--------------------------------------------------------------------------------
Number of tracks:  5
Official DR value: DR7
Samplerate:        44100 Hz
Channels:          2
Bits per sample:   16
Bitrate:           782 kbps
Codec:             FLAC
================================================================================
#777Tracklist:
01. Lead A Normal Life (4:05)
02. I Don't Remember (4:14)
03. San Jacinto (8:15)
04. Intruder (4:18)
05. Rhythm Of The Heat (4:56)
06. Mother Stands For Comfort (3:37)
07. No Self Control (4:15)
08. Family Snapshot (4:40)
09. I Have The Touch (4:40)
10. Games Without Frontiers / Of These, Hope (8:09)
11. Lay Your Hands On Me (5:54)
Line-up / Musicians:
Happy Rhodes -- Voice
Jerry Marotta -- Drums, B.Vox
Trey Gunn -- Touch Guitar, B.Vox
David Jameson -- Keyboards, Eigenharp
Michael Cozzi -- Guitar, B. Vox
Код: Выделить всё
-----------------------
DON'T MODIFY THIS FILE
-----------------------
PERFORMER: auCDtect Task Manager, ver. 1.6.0 RC1 build 1.6.0.1
Copyright (c) 2008-2010 y-soft. All rights reserved
[url=http://y-soft.org]http://y-soft.org[/url]
ANALYZER: auCDtect: CD records authenticity detector, version 0.8.2
Copyright (c) 2004 Oleg Berngardt. All rights reserved.
Copyright (c) 2004 Alexander Djourik. All rights reserved.
FILE: 11. Lay Your Hands On Me.flac
  Size: 31337062 Hash: 997464505AF3628850074E7CDF3D96C9 Accuracy: -m0
  Conclusion: CDDA 99%
  Signature: 0716A896C76841C0EED5DF73B6A510C388A6E5E0
FILE: 10. Games Without Frontiers  Of These, Hope.flac
  Size: 52268784 Hash: B23A99372C12D3BE7A1D050C7AB5F1BC Accuracy: -m0
  Conclusion: CDDA 100%
  Signature: 97AD7DAB04E4CC1E0EDD83E5B79EF1B26FFB07EB
FILE: 09. I Have The Touch.flac
  Size: 32292341 Hash: 287183DD5AADD453AF2A120495EBF15F Accuracy: -m0
  Conclusion: CDDA 100%
  Signature: 5595225B1EB6EF498F397EC815AD11559D06F837
FILE: 08. Family Snapshot.flac
  Size: 23873254 Hash: 71866D071CA41C7C0C544431F368A9E3 Accuracy: -m0
  Conclusion: CDDA 100%
  Signature: 71CBE9F146D63B96FB27773B561DDEF1BE6E0144
FILE: 07. No Self Control.flac
  Size: 25989564 Hash: 20CFEF9FC1E8354B13B6E8A5F44B6CD6 Accuracy: -m0
  Conclusion: CDDA 100%
  Signature: 2EDB8EC5E5617ADBA6A337D0F2DD2C9E1F9BE8D9
FILE: 06. Mother Stands For Comfort.flac
  Size: 16738383 Hash: 654F29AD739B0526701F6AE6CBDABCCD Accuracy: -m0
  Conclusion: CDDA 100%
  Signature: 0978002C840806BDE6ED93ADC534CE8A5AADE7C5
FILE: 05. Rhythm Of The Heat.flac
  Size: 25453088 Hash: 50C075DC6737EF395584B56F5ED50ED8 Accuracy: -m0
  Conclusion: CDDA 100%
  Signature: F034DD3624B3EA56C6D18BA26E3A22C6533CBD68
FILE: 04. Intruder.flac
  Size: 26087734 Hash: EE82699F02ABB5FB766FAE6C965B6E4A Accuracy: -m0
  Conclusion: CDDA 100%
  Signature: C297F017A2A4EFF1E27617F635D70A2A923EE090
FILE: 03. San Jacinto.flac
  Size: 50583886 Hash: FEA7E64DA71B91CA507365921E1EEF15 Accuracy: -m0
  Conclusion: MPEG 100%
  Signature: 97E8826C7070819F22BA2FEA84C96304A9EC7528
FILE: 02. I Don't Remember.flac
  Size: 25672994 Hash: 5B7777ABE4E63680E94D114513EC1F13 Accuracy: -m0
  Conclusion: CDDA 100%
  Signature: 11524808744B29EC86391E9180BAB93549B08F22
FILE: 01. Lead A Normal Life.flac
  Size: 20562084 Hash: FE2198D5BA2A3D5C98B84CA6DAFA7DF1 Accuracy: -m0
  Conclusion: CDDA 100%
  Signature: 252BE48CE1AF95E8F0F5FFB077997C6B24B75D37
Код: Выделить всё
foobar2000 1.3.9 / Dynamic Range Meter 1.1.1
log date: 2019-11-04 17:20:09
--------------------------------------------------------------------------------
Analyzed: Security Project / CONTACT
--------------------------------------------------------------------------------
DR         Peak         RMS     Duration Track
--------------------------------------------------------------------------------
DR8       -0.04 dB   -12.43 dB      4:05 01-Lead A Normal Life
DR8        0.00 dB   -11.64 dB      4:14 02-I Don't Remember
DR9       -0.03 dB   -12.01 dB      8:15 03-San Jacinto
DR9        0.00 dB   -11.44 dB      4:18 04-Intruder
DR8        0.00 dB   -11.73 dB      4:56 05-Rhythm Of The Heat
DR9       -0.10 dB   -10.73 dB      3:37 06-Mother Stands For Comfort
DR8        0.00 dB   -11.02 dB      4:15 07-No Self Control
DR9       -0.03 dB   -12.57 dB      4:40 08-Family Snapshot
DR9        0.00 dB   -10.35 dB      4:40 09-I Have The Touch
DR8        0.00 dB   -11.13 dB      8:09 10-Games Without Frontiers / Of These, Hope
DR9       -0.02 dB   -12.43 dB      5:54 11-Lay Your Hands On Me
--------------------------------------------------------------------------------
Number of tracks:  11
Official DR value: DR9
Samplerate:        44100 Hz
Channels:          2
Bits per sample:   16
Bitrate:           707 kbps
Codec:             FLAC
================================================================================
#777Tracklist:
01. Here Comes The Flood (w/Happy Rhodes) (5:43)
Line-up / Musicians:
Happy Rhodes – Lead Voice
Jerry Marotta – Drums, Vocals
Trey Gunn – Touch Guitar, Vocals
David Jameson – Keyboards
Michael Cozzi – Guitar, Vocals
Код: Выделить всё
-----------------------
DON'T MODIFY THIS FILE
-----------------------
PERFORMER: auCDtect Task Manager, ver. 1.6.0 RC1 build 1.6.0.1
Copyright (c) 2008-2010 y-soft. All rights reserved
[url=http://y-soft.org]http://y-soft.org[/url]
ANALYZER: auCDtect: CD records authenticity detector, version 0.8.2
Copyright (c) 2004 Oleg Berngardt. All rights reserved.
Copyright (c) 2004 Alexander Djourik. All rights reserved.
FILE: 01. Here Comes The Flood (wHappy Rhodes).flac
  Size: 27966557 Hash: 5AA442FCB3ADEFF3BE2E3E93050E4F46 Accuracy: -m0
  Conclusion: CDDA 99%
  Signature: 20FAB366DA5122C010E743D1463B18417D4FD996
Код: Выделить всё
foobar2000 1.3.9 / Dynamic Range Meter 1.1.1
log date: 2019-11-04 17:20:41
--------------------------------------------------------------------------------
Statistics for: 01-Here Comes The Flood (w/Happy Rhodes)
Number of samples: 15113011
Duration: 5:43
--------------------------------------------------------------------------------
                 Left              Right
Peak Value:      0.00 dB   ---      0.00 dB
Avg RMS:       -17.79 dB   ---    -17.41 dB
DR channel:     12.96 dB   ---     12.88 dB
--------------------------------------------------------------------------------
Official DR Value: DR13
Samplerate:        44100 Hz
Channels:          2
Bits per sample:   16
Bitrate:           652 kbps
Codec:             FLAC
================================================================================
#777Tracklist:
01. Slowburn (5:25)
02. Mother Of Violence (3:29)
03. The Lamb Lies Down On Broadway (5:35)
04. Humdrum (3:47)
05. Fly On A Windshield (4:39)
06. The Family And The Fishing Net (8:01)
07. Wallflower (6:04)
08. Genesis Medley + The Lamb (10:46)
Line-up / Musicians:
Happy Rhodes – Lead Voice
Jerry Marotta – Drums, Vocals
Trey Gunn – Touch Guitar, Vocals
David Jameson – Keyboards
Michael Cozzi – Guitar, Vocals
Код: Выделить всё
-----------------------
DON'T MODIFY THIS FILE
-----------------------
PERFORMER: auCDtect Task Manager, ver. 1.6.0 RC1 build 1.6.0.1
Copyright (c) 2008-2010 y-soft. All rights reserved
[url=http://y-soft.org]http://y-soft.org[/url]
ANALYZER: auCDtect: CD records authenticity detector, version 0.8.2
Copyright (c) 2004 Oleg Berngardt. All rights reserved.
Copyright (c) 2004 Alexander Djourik. All rights reserved.
FILE: 08. Genesis Medley + The Lamb.flac
  Size: 66389221 Hash: 5716B41E7015B061C1255EADB0D7E1E3 Accuracy: -m0
  Conclusion: CDDA 99%
  Signature: AA035997681C4E77F6DABED99438456DB4D4D551
FILE: 07. Wallflower.flac
  Size: 35292356 Hash: 4BA6E2A542F04296FCD0139F1EBB2C37 Accuracy: -m0
  Conclusion: CDDA 100%
  Signature: A944ECD97C995744892746938881963D620D106E
FILE: 06. The Family And The Fishing Net.flac
  Size: 49893748 Hash: 6D0E2B5D2E6D90764E8AF12B60CF8983 Accuracy: -m0
  Conclusion: CDDA 100%
  Signature: 1ABDE0DEA99569C4884BA354E20F775CC1AECC3C
FILE: 05. Fly On A Windshield.flac
  Size: 30281602 Hash: 76BBEB3D6E8B982DD7CAAA8C7D941758 Accuracy: -m0
  Conclusion: CDDA 100%
  Signature: C968ADA3EB9BF8AFF3FFE2711F8A92F71854C606
FILE: 04. Humdrum.flac
  Size: 24458392 Hash: 173A902BDE6B7503DC6B43A87774F601 Accuracy: -m0
  Conclusion: CDDA 100%
  Signature: C5FFF8E87E42B89F55664E3847D33730EC81CD85
FILE: 03. The Lamb Lies Down On Broadway.flac
  Size: 38227223 Hash: E89FB66B06B8D0AFA701B4F4DEA4B023 Accuracy: -m0
  Conclusion: CDDA 100%
  Signature: 437C2752E55BE7B5BE6FA99E4C0A701FC6F5BBE8
FILE: 02. Mother Of Violence.flac
  Size: 19412994 Hash: 6640FB360499169252350D0DE806151E Accuracy: -m0
  Conclusion: CDDA 100%
  Signature: E7DB492CB3DDC2573E3FA1F5018BC498739E0513
FILE: 01. Slowburn.flac
  Size: 34354845 Hash: F0D1DFC534F158CB4FE44D04DA50EECE Accuracy: -m0
  Conclusion: CDDA 100%
  Signature: E627A78EE3D04E61FB7C4C7B324FF1E81192C0D2
Код: Выделить всё
foobar2000 1.3.9 / Dynamic Range Meter 1.1.1
log date: 2019-11-04 17:21:11
--------------------------------------------------------------------------------
Analyzed: Security Project / Slowburn
--------------------------------------------------------------------------------
DR         Peak         RMS     Duration Track
--------------------------------------------------------------------------------
DR9        0.00 dB   -11.17 dB      5:25 01-Slowburn
DR10       0.00 dB   -12.46 dB      3:29 02-Mother Of Violence
DR8        0.00 dB    -9.33 dB      5:35 03-The Lamb Lies Down On Broadway
DR7        0.00 dB    -9.91 dB      3:47 04-Humdrum
DR8        0.00 dB   -11.15 dB      4:39 05-Fly On A Windshield
DR9        0.00 dB   -11.44 dB      8:01 06-The Family And The Fishing Net
DR9        0.00 dB   -11.33 dB      6:04 07-Wallflower
DR8        0.00 dB   -10.60 dB     10:46 08-Genesis Medley + The Lamb
--------------------------------------------------------------------------------
Number of tracks:  8
Official DR value: DR8
Samplerate:        44100 Hz
Channels:          2
Bits per sample:   16
Bitrate:           822 kbps
Codec:             FLAC
================================================================================


Лейтесь, песни! Лейтесь над всей планетой песни Питера Гэбриэла и группы Genesis! И хотя группа Genesis уже ушла в историю, а давным-давно расставшийся с ней Гэбриэл увлечен совсем другими проектами, миллионы поклонников одного из самых выдающихся рок-музыкантов и группы, оказавшей фундаментальное воздействие на развитие прог-рока, по-прежнему хотят слушать на концертах их песни. В этом им уже семь лет помогает группа The Security Project. Да, это кавер-бэнд, но уж очень необычный. Во-первых, он составлен из музыкантов экстра-класса. Назову хотя бы имена ударника Джерри Маротты, много лет игравшего с Гэбриэлом, или гитариста Трея Ганна, бывшего музыканта King Crimson и основателя компании 7d Media. Во-вторых, музыканты The Security Project, чрезвычайно деликатно относясь к оригинальным вариантам, изыскивают креативные возможности вносить в исполняемые композиции и что-то свое. И, поверьте, им есть что сказать! Меня в общем-то не привлекают концерты кавер-бэндов, но на выступление The Security Project я пошел бы с огромным удовольствием.
А пока – слушаю их в записи. Несколько лет назад на сайте публиковалась рецензия на альбом Contact, а сегодня представляем вам новую работу группы – Slowburn. Это вновь концертный альбом, составленный из материалов американского тура The Security Project, состоявшегося в мае-июне 2018 года. К моему величайшему сожалению альбом не слишком велик: всего сорок минут звучания и семь композиций. Две песни взяты из альбома Genesis 1974 года The Lamb Lies Down On Broadway: одноименная титульная композиция того альбома и Fly On A Windshield, а остальные пять отражают ранний период сольной карьеры Гэбриэла – с 1977 по 1982 год. И мне было достаточно услышать в интерпретации The Security Project песню The Family and the Fishing Net (1982) с четвертого сольника Гэбриэла, чтобы что-то сладко защемило в душе и не отпускало до последней ноты последнего трека. Возможно, я не объективен, но это было просто великолепно! Чисто вокально-клавишно-гитарный прог-рок с упором именно на вокал: поют в группе все, кроме клавишника Дэвида Джеймисона, но главным вокалистом является Хэппи Роудс с ее уникальным четырехоктавным голосом. В современном прог-роке почти никто так не поет, больше в почете длинные инструментальные эпики, которых у The Security Project практически нет, хотя альбом и концертный: не считать же таковым все тот же восьмиминутный The Family and the Fishing Net. И это тоже придает особое своеобразие исполнению, ну, и потом – музыка Гэбриэла… Если вы поклонник Гэбриэла и Genesis – вы меня поймете и согласитесь с мнением маститого критика Анила Прасада: «Группа очень далеко ушла от стандартных схем трибьют-бэндов, насыщая песни новыми аранжировками и элементами, однако, сохраняя при этом дух материала. Поклонников Гэбриэла захватит этот высокооктановый стиль исполнения, полный драйва, решительности и энергии».https://jazzquad.ru/index.pl?act=PRODUCT&id=5242
Релиз от группы:

Правила, инструкции, FAQ!!!
Торрент  Добавлен [09 ноя 2019, 12:39] Скачать торрент Магнет ссылка
Скачать торрент
20.44 КБ

Статус
Проверен 
 
Размер  1.46 ГБ
Приватный: Нет (DHT включён)
.torrent скачан  1
Как залить торрент? | Как скачать Torrent? | Как смотреть и слушать онлайн?  
Гость
 


Вернуться в Progressive & Art-Rock

Кто сейчас на конференции

Сейчас этот форум просматривают: нет зарегистрированных пользователей и гости: 0