(Psychedelic Rock, Prog Rock) [CD] Heavy Jelly - Heavy Jelly - 1970 (Angel Air EU 2014), FLAC (tracks+.cue), lossless


Статистика раздачи
Размер: 244.92 МБ | Добавлен: 09 ноя 2019, 12:41 | Скачали: 1
Сидеров: 50  [0 байт/сек]    Личеров: 16  [0 байт/сек]

Сообщение Гость » 09 ноя 2019, 12:41

Heavy Jelly - Heavy Jelly
Жанр: Psychedelic Rock, Prog Rock
Страна-производитель диска: EU
Год издания диска: 2014
Издатель (лейбл): Angel Air
Номер по каталогу: SJPCD440
Страна: UK
Аудиокодек: FLAC (*.flac)
Тип рипа: tracks+.cue
Битрейт аудио: lossless
Продолжительность: 00:38:17
Источник (релизер): Sket4er
Наличие сканов в содержимом раздачи: да
Треклист:
01. You Better Let Me Know
02. Born For Something
03. Too Complicated
04. Just Don't Feel So Good
05. F-F-F-Females
06. Bio Blues
07. If You'd Like To
08. Take Me Down To The Water
Код: Выделить всё
Exact Audio Copy V1.3 from 2. September 2016
EAC extraction logfile from 7. November 2019, 20:02
Heavy Jelly / Heavy Jelly
Used drive  : ASUS    DRW-24D5MT   Adapter: 1  ID: 0
Read mode               : Secure
Utilize accurate stream : Yes
Defeat audio cache      : Yes
Make use of C2 pointers : No
Read offset correction                      : 6
Overread into Lead-In and Lead-Out          : No
Fill up missing offset samples with silence : Yes
Delete leading and trailing silent blocks   : No
Null samples used in CRC calculations       : Yes
Used interface                              : Native Win32 interface for Win NT & 2000
Gap handling                                : Appended to previous track
Used output format              : User Defined Encoder
Selected bitrate                : 1024 kBit/s
Quality                         : High
Add ID3 tag                     : No
Command line compressor         : C:\Program Files (x86)\Exact Audio Copy\Flac\flac.exe
Additional command line options :  -V -8 -T "Genre=%genre%" -T "Artist=%artist%" -T "Title=%title%" -T "Album=%albumtitle%" -T "Date=%year%" -T "Tracknumber=%tracknr%" -T "Comment=%comment%" %source%
TOC of the extracted CD
     Track |   Start  |  Length  | Start sector | End sector
    ---------------------------------------------------------
        1  |  0:00.00 |  3:26.30 |         0    |    15479
        2  |  3:26.30 |  4:55.45 |     15480    |    37649
        3  |  8:22.00 |  3:26.70 |     37650    |    53169
        4  | 11:48.70 |  5:49.30 |     53170    |    79374
        5  | 17:38.25 |  4:04.67 |     79375    |    97741
        6  | 21:43.17 |  5:06.58 |     97742    |   120749
        7  | 26:50.00 |  3:55.17 |    120750    |   138391
        8  | 30:45.17 |  7:32.15 |    138392    |   172306
Track  1
     Filename D:\Sket4er\Heavy Jelly – Heavy Jelly (1970)  2014\01 You Better Let Me Know.wav
     Pre-gap length  0:00:02.00
     Peak level 100.0 %
     Extraction speed 1.1 X
     Track quality 100.0 %
     Test CRC 4900CE26
     Copy CRC 4900CE26
     Cannot be verified as accurate (confidence 3)  [157304BA], AccurateRip returned [09DBBDFD]  (AR v2)
     Copy OK
Track  2
     Filename D:\Sket4er\Heavy Jelly – Heavy Jelly (1970)  2014\02 Born For Something.wav
     Peak level 100.0 %
     Extraction speed 1.3 X
     Track quality 100.0 %
     Test CRC 7C1BA29F
     Copy CRC 7C1BA29F
     Cannot be verified as accurate (confidence 3)  [783014EC], AccurateRip returned [2C195254]  (AR v2)
     Copy OK
Track  3
     Filename D:\Sket4er\Heavy Jelly – Heavy Jelly (1970)  2014\03 Too Complicated.wav
     Peak level 100.0 %
     Extraction speed 1.3 X
     Track quality 100.0 %
     Test CRC C9E3AA76
     Copy CRC C9E3AA76
     Cannot be verified as accurate (confidence 3)  [2D70AB3C], AccurateRip returned [ADEE874E]  (AR v2)
     Copy OK
Track  4
     Filename D:\Sket4er\Heavy Jelly – Heavy Jelly (1970)  2014\04 Just Don't Feel So Good.wav
     Peak level 100.0 %
     Extraction speed 1.5 X
     Track quality 100.0 %
     Test CRC B396BB2A
     Copy CRC B396BB2A
     Cannot be verified as accurate (confidence 3)  [C600B3B1], AccurateRip returned [FE4E72A7]  (AR v2)
     Copy OK
Track  5
     Filename D:\Sket4er\Heavy Jelly – Heavy Jelly (1970)  2014\05 F-F-F-Females.wav
     Peak level 100.0 %
     Extraction speed 1.6 X
     Track quality 100.0 %
     Test CRC 463E78ED
     Copy CRC 463E78ED
     Cannot be verified as accurate (confidence 3)  [2BA827B7], AccurateRip returned [8423E175]  (AR v2)
     Copy OK
Track  6
     Filename D:\Sket4er\Heavy Jelly – Heavy Jelly (1970)  2014\06 Bio Blues.wav
     Peak level 100.0 %
     Extraction speed 1.6 X
     Track quality 99.9 %
     Test CRC 8AB816C1
     Copy CRC 8AB816C1
     Cannot be verified as accurate (confidence 3)  [B6F74014], AccurateRip returned [864CF9D5]  (AR v2)
     Copy OK
Track  7
     Filename D:\Sket4er\Heavy Jelly – Heavy Jelly (1970)  2014\07 If You'd Like To.wav
     Peak level 100.0 %
     Extraction speed 1.8 X
     Track quality 100.0 %
     Test CRC 77BB5D15
     Copy CRC 77BB5D15
     Cannot be verified as accurate (confidence 3)  [CE06436D], AccurateRip returned [93E8B203]  (AR v2)
     Copy OK
Track  8
     Filename D:\Sket4er\Heavy Jelly – Heavy Jelly (1970)  2014\08 Take Me Down To The Water.wav
     Peak level 100.0 %
     Extraction speed 1.8 X
     Track quality 99.9 %
     Test CRC 216386F4
     Copy CRC 216386F4
     Cannot be verified as accurate (confidence 3)  [50364082], AccurateRip returned [8EC9AA84]  (AR v2)
     Copy OK
No tracks could be verified as accurate
You may have a different pressing from the one(s) in the database
No errors occurred
End of status report
---- CUETools DB Plugin V2.1.6
[CTDB TOCID: rEvVD4XBMLQBT7u7G527kDz63_4-] found
Submit result: rEvVD4XBMLQBT7u7G527kDz63_4- has been confirmed
Track | CTDB Status
  1   | (6/6) Accurately ripped
  2   | (6/6) Accurately ripped
  3   | (6/6) Accurately ripped
  4   | (6/6) Accurately ripped
  5   | (6/6) Accurately ripped
  6   | (6/6) Accurately ripped
  7   | (6/6) Accurately ripped
  8   | (6/6) Accurately ripped
==== Log checksum 9CCB9C78EF9EEB795965868713A53A5CE9210150DA06E644CFD57B4463F734C5 ====
Код: Выделить всё
REM GENRE Rock
REM DATE 1970
REM DISCID 4B08F908
REM COMMENT "ExactAudioCopy v1.3"
PERFORMER "Heavy Jelly"
TITLE "Heavy Jelly"
REM COMPOSER ""
FILE "01 You Better Let Me Know.wav" WAVE
  TRACK 01 AUDIO
    TITLE "You Better Let Me Know"
    PERFORMER "Heavy Jelly"
    REM COMPOSER ""
    INDEX 01 00:00:00
FILE "02 Born For Something.wav" WAVE
  TRACK 02 AUDIO
    TITLE "Born For Something"
    PERFORMER "Heavy Jelly"
    REM COMPOSER ""
    INDEX 01 00:00:00
FILE "03 Too Complicated.wav" WAVE
  TRACK 03 AUDIO
    TITLE "Too Complicated"
    PERFORMER "Heavy Jelly"
    REM COMPOSER ""
    INDEX 01 00:00:00
FILE "04 Just Don't Feel So Good.wav" WAVE
  TRACK 04 AUDIO
    TITLE "Just Don't Feel So Good"
    PERFORMER "Heavy Jelly"
    REM COMPOSER ""
    INDEX 01 00:00:00
FILE "05 F-F-F-Females.wav" WAVE
  TRACK 05 AUDIO
    TITLE "F-F-F-Females"
    PERFORMER "Heavy Jelly"
    REM COMPOSER ""
    INDEX 01 00:00:00
FILE "06 Bio Blues.wav" WAVE
  TRACK 06 AUDIO
    TITLE "Bio Blues"
    PERFORMER "Heavy Jelly"
    REM COMPOSER ""
    INDEX 01 00:00:00
FILE "07 If You'd Like To.wav" WAVE
  TRACK 07 AUDIO
    TITLE "If You'd Like To"
    PERFORMER "Heavy Jelly"
    REM COMPOSER ""
    INDEX 01 00:00:00
FILE "08 Take Me Down To The Water.wav" WAVE
  TRACK 08 AUDIO
    TITLE "Take Me Down To The Water"
    PERFORMER "Heavy Jelly"
    REM COMPOSER ""
    INDEX 01 00:00:00
Код: Выделить всё
-----------------------
DON'T MODIFY THIS FILE
-----------------------
PERFORMER: auCDtect Task Manager, ver. 1.5.1RC4 build 1.5.1.5
Copyright (c) 2008-2010 y-soft. All rights reserved
[url=http://y-soft.org]http://y-soft.org[/url]
ANALYZER: auCDtect: CD records authenticity detector, version 0.8.2
Copyright (c) 2004 Oleg Berngardt. All rights reserved.
Copyright (c) 2004 Alexander Djourik. All rights reserved.
FILE: 08 Take Me Down To The Water.flac
  Size: 48145262 Hash: 092FD0255F5ED318921578242CDD0D55 Accuracy: -m0
  Conclusion: CDDA 100%
  Signature: 84944684A5883BEFC44B7C184981495BB0EAE45A
FILE: 07 If You'd Like To.flac
  Size: 27360690 Hash: B24B0928D93752CE12F88752C970934D Accuracy: -m0
  Conclusion: CDDA 100%
  Signature: 6635DD8381F35D0218E31B2C91390BACA0654010
FILE: 06 Bio Blues.flac
  Size: 33095610 Hash: 75DDA9A199C07DAA13BBF3242F1C6BBE Accuracy: -m0
  Conclusion: CDDA 100%
  Signature: 10B0BCED0B286296FB7B2282DC29111BDB85C788
FILE: 05 F-F-F-Females.flac
  Size: 26257095 Hash: 66400EEFADCC574DDEA1405DE5203230 Accuracy: -m0
  Conclusion: CDDA 100%
  Signature: 1FAA6CFDCF4D5464A6EDDBEAE58EC1DA43EFBBBD
FILE: 04 Just Don't Feel So Good.flac
  Size: 36837516 Hash: 58ECEB6B238FB0B71802F2E16473DF2B Accuracy: -m0
  Conclusion: CDDA 100%
  Signature: 568EAA23352B3AE878E728873CFD6F606CE0B213
FILE: 03 Too Complicated.flac
  Size: 23666045 Hash: 08E116AE063474216A84CCAD2294C4F4 Accuracy: -m0
  Conclusion: CDDA 100%
  Signature: 917865662B185B1D59351D971359CF790935E114
FILE: 02 Born For Something.flac
  Size: 31221478 Hash: 302B7C2B16F9CBF3CEE8BEEE97B5ED3E Accuracy: -m0
  Conclusion: CDDA 100%
  Signature: 4629B062A3DDA5B2408B43088AE1C81F04ED18E4
FILE: 01 You Better Let Me Know.flac
  Size: 23503809 Hash: FDC9B7A20D357889CC12874D598B3B0C Accuracy: -m0
  Conclusion: CDDA 100%
  Signature: D879B3A74EDC8B44316707222EA59E702B9EF975
Код: Выделить всё
[CUETools log; Date: 08.11.2019 11:01:06; Version: 2.1.6]
[CTDB TOCID: rEvVD4XBMLQBT7u7G527kDz63_4-] found.
Track | CTDB Status
  1   | (7/7) Accurately ripped
  2   | (7/7) Accurately ripped
  3   | (7/7) Accurately ripped
  4   | (7/7) Accurately ripped
  5   | (7/7) Accurately ripped
  6   | (7/7) Accurately ripped
  7   | (7/7) Accurately ripped
  8   | (7/7) Accurately ripped
[AccurateRip ID: 000ae872-0049e63b-4b08f908] found.
Track   [  CRC   |   V2   ] Status
 01     [a0972c0f|157304ba] (0+0/3) No match
 02     [78f5bfd5|783014ec] (0+0/3) No match
 03     [89f48507|2d70ab3c] (0+0/3) No match
 04     [9ac96b6c|c600b3b1] (0+0/3) No match
 05     [3ab62687|2ba827b7] (0+0/3) No match
 06     [a0c35977|b6f74014] (0+0/3) No match
 07     [d5d37761|ce06436d] (0+0/3) No match
 08     [4061fa85|50364082] (0+0/3) No match
Offsetted by 6:
 01     [960f1d7e] (0/3) No match (V2 was not tested)
 02     [2a87e914] (0/3) No match (V2 was not tested)
 03     [0c10a84f] (0/3) No match (V2 was not tested)
 04     [d5d38b91] (0/3) No match (V2 was not tested)
 05     [9473f63d] (0/3) No match (V2 was not tested)
 06     [728091a1] (0/3) No match (V2 was not tested)
 07     [9d8d1ed4] (0/3) No match (V2 was not tested)
 08     [828a060a] (0/3) No match (V2 was not tested)
Track Peak [ CRC32  ] [W/O NULL] [  LOG   ]
 --  100,0 [FFC164AC] [6DBB958D]
 01  100,0 [4900CE26] [FCFF00AA]   CRC32
 02  100,0 [7C1BA29F] [CFFD7117]   CRC32
 03  100,0 [C9E3AA76] [CF9504BB]   CRC32
 04  100,0 [B396BB2A] [B4D2E6B6]   CRC32
 05  100,0 [463E78ED] [D5D50209]   CRC32
 06  100,0 [8AB816C1] [A64F6B1A]   CRC32
 07  100,0 [77BB5D15] [A3F1D098]   CRC32
 08  100,0 [216386F4] [A5B8A4E4]   CRC32
Код: Выделить всё
foobar2000 1.3.9 / Замер динамического диапазона (DR) 1.1.1
Дата отчёта:  2019-11-08 13:48:07
--------------------------------------------------------------------------------
Анализ:   Heavy Jelly / Heavy Jelly
--------------------------------------------------------------------------------
DR         Пики         RMS           Продолжительность трека
--------------------------------------------------------------------------------
DR10       0.00 дБ   -11.05 дБ      3:26 01-You Better Let Me Know
DR12       0.00 дБ   -13.02 дБ      4:56 02-Born For Something
DR11       0.00 дБ   -12.39 дБ      3:27 03-Too Complicated
DR12       0.00 дБ   -13.19 дБ      5:49 04-Just Don't Feel So Good
DR10       0.00 дБ   -11.78 дБ      4:05 05-F-F-F-Females
DR10       0.00 дБ   -11.11 дБ      5:07 06-Bio Blues
DR10       0.00 дБ   -11.31 дБ      3:55 07-If You'd Like To
DR12       0.00 дБ   -14.52 дБ      7:32 08-Take Me Down To The Water
--------------------------------------------------------------------------------
Количество треков: 8
Реальные значения DR: DR11
Частота:   44100 Гц
Каналов:   2
Разрядность:   16
Битрейт:   851 кбит/с
Кодек:   FLAC
================================================================================
Доп. информация
Alex Dmochowski – Bass
Barry Jenkins – Drums
Jackie Lomax – Vocals, Guitar, Piano
John Morshead – Lead Guitar, Vocals
Pete Ham – Harmony Vocal (tracks: 8)
Mike Kellie – Drums (tracks: 2,6)
Tom Evans – Harmony Vocals (tracks: 8)
Bobby Keys – Tenor Saxophone (tracks: 3)
Jim Price – Trumpet, Trombone (tracks: 3)
Never officially released before, this long-lost 1970 album has attained legendary status and appeared in bootleg or unofficial form under the titles of HEAVY JELLY, THE EAGLE LAUGHS AT YOU, TAKE ME DOWN TO THE WATER and even TAKE ME DOWN TO THE RIVER! This release allows the music to be heard in the best-yet quality and for the the album and the songs to take their rightful place in Lackie Lomax's back catalogue, and in the most peculiar history of a fictitious group that somehow became a real band - HEAVY JELLY.
Правила, инструкции, FAQ!!!
Торрент  Добавлен [09 ноя 2019, 12:41] Скачать торрент Магнет ссылка
Скачать торрент
20.71 КБ

Статус
Проверен 
 
Размер  244.92 МБ
Приватный: Нет (DHT включён)
.torrent скачан  1
Как залить торрент? | Как скачать Torrent? | Как смотреть и слушать онлайн?  
Гость
 


Вернуться в Progressive & Art-Rock

Кто сейчас на конференции

Сейчас этот форум просматривают: нет зарегистрированных пользователей и гости: 0