(rock, Heavy Metal) [CD] Feinstein - Hail And Farewell (A Tribute To Ronnie James Dio) - 2017, FLAC (image+.cue), lossless


Статистика раздачи
Размер: 286.39 МБ | Добавлен: 26 май 2019, 13:28 | Скачали: 0
Сидеров: 1  [0 байт/сек]    Личеров: 0  [0 байт/сек]

Сообщение Гость » 26 май 2019, 13:28

Feinstein / Hail And Farewell (A Tribute To Ronnie James Dio)
Жанр: Rock, Heavy Metal
Носитель: CD
Страна-производитель диска (релиза): Russia, Unofficial Release
Год издания: 2017
Издатель (лейбл): Not On Label ‎
Номер по каталогу: DRF003
Аудиокодек: FLAC (*.flac)
Тип рипа: image+.cue
Продолжительность: 41:21
Источник: собственный рип
Наличие сканов в содержимом раздачи: да
Треклист:
01. A Prophet Is Born 02:09
02. March Of The Elves 00:30
03. Give It To Them Hard 03:32
04. Chasing Rainbows 04:33
05. Hold On 03:48
06. Song Of Woe 04:38
07. Kill The Pain 04:10
08. Witches Brew 04:40
09. Hail And Farewell 05:20
10. My Hero 07:56
Код: Выделить всё
Exact Audio Copy V1.0 beta 3 from 29. August 2011
Отчёт EAC об извлечении, выполненном 25. мая 2019, 8:27
David "Rock" Feinstein / Hail And Farewell
Дисковод: TSSTcorpCDDVDW SH-224DB   Adapter: 1  ID: 0
Режим чтения                 : Достоверность
Использование точного потока : Да
Отключение кэша аудио        : Да
Использование указателей C2  : Нет
Коррекция смещения при чтении                     : 6
Способность читать области Lead-in и Lead-out     : Нет
Заполнение пропущенных сэмплов тишиной            : Да
Удаление блоков с тишиной в начале и конце        : Нет
При вычислениях CRC использовались нулевые сэмплы : Да
Интерфейс                                         : Встроенный Win32-интерфейс для Win NT/2000
Выходной формат          : Пользовательский кодировщик
Выбранный битрейт        : 768 kBit/s
Качество                 : Высокий
Добавление ID3-тега      : Нет
Утилита сжатия           : C:\Program Files\Exact Audio Copy\Flac\flac.exe
Дополнительные параметры : -V -8 -T "Date=%year%" -T "Genre=%genre%" %source%
TOC извлечённого CD
     Трек |   Старт  | Длительность | Начальный сектор | Конечный сектор
    ---------------------------------------------------------------------
       1  |  0:00.00 |    2:09.33   |           0      |       9707
       2  |  2:09.33 |    0:30.49   |        9708      |      12006
       3  |  2:40.07 |    3:32.31   |       12007      |      27937
       4  |  6:12.38 |    4:33.21   |       27938      |      48433
       5  | 10:45.59 |    3:48.73   |       48434      |      65606
       6  | 14:34.57 |    4:38.25   |       65607      |      86481
       7  | 19:13.07 |    4:10.30   |       86482      |     105261
       8  | 23:23.37 |    4:40.65   |      105262      |     126326
       9  | 28:04.27 |    5:20.26   |      126327      |     150352
      10  | 33:24.53 |    7:56.11   |      150353      |     186063
Характеристики диапазона извлечения и сообщения об ошибках
Выбранный диапазон
     Имя файла D:\lo$$le$$\Feinstein 2017 Hail and farewell\David ''Rock'' Feinstein - Hail And Farewell.wav
     Пиковый уровень 98.9 %
     Скорость извлечения 7.4 X
     Качество диапазона 100.0 %
     CRC теста A8AE4AA6
     CRC копии A8AE4AA6
     Копирование... OK
Ошибок не произошло
AccurateRip: сводка
Трек  1  отсутствует в базе данных
Трек  2  отсутствует в базе данных
Трек  3  отсутствует в базе данных
Трек  4  отсутствует в базе данных
Трек  5  отсутствует в базе данных
Трек  6  отсутствует в базе данных
Трек  7  отсутствует в базе данных
Трек  8  отсутствует в базе данных
Трек  9  отсутствует в базе данных
Трек 10  отсутствует в базе данных
Ни одного трека нет в базе AccurateRip
Конец отчёта
==== Контрольная сумма отчёта 0B248996754A6882780147BBD949065FED3C6F5B7306F5F978CF9ACB2DCDE9AB ====
Bass – Freddy Villano
Drums – Carl Canedy, Nate Horton (tracks: 7)
Guitar, Lead Vocals – David Feinstein
Keyboards – Lonnie Park
Lead Vocals – Eleanor Feinstein Phalen (tracks: 10), Lonnie Park (tracks: 4), Shawn Albro (tracks: 7)
Trumpet – Alex Otey (tracks: 2)
Vocals – Eleanor Feinstein Phalen (tracks: 1, 3, 6)
Vocals, Lead Vocals – Garry Bordonaro (tracks: 5)
Правила, инструкции, FAQ!!!
Торрент  Добавлен [26 май 2019, 13:28] Скачать торрент Магнет ссылка
Скачать торрент
12.07 КБ

Статус
Проверен 
 
Размер  286.39 МБ
Приватный: Нет (DHT включён)
.torrent скачан  0
Как залить торрент? | Как скачать Torrent? | Как смотреть и слушать онлайн?  
Гость
 



Вернуться в Heavy, Power, Progressive (Metal)

Кто сейчас на конференции

Сейчас этот форум просматривают: нет зарегистрированных пользователей и гости: 0