(Rock, Pop Rock) Fox - The Fox Box (4CD Box Set) - 2019 (Cherry Red Records EU), FLAC (image+.cue), lossless


Статистика раздачи
Размер: 2.03 ГБ | Добавлен: 09 ноя 2019, 12:41 | Скачали: 1
Сидеров: 0  [0 байт/сек]    Личеров: 0  [0 байт/сек]

Сообщение Гость » 09 ноя 2019, 12:41

Fox - The Fox Box
Жанр: Rock, Pop Rock
Страна-производитель диска: EU
Год издания диска: 2019
Издатель (лейбл): Samaguru Productions Limited / Cherry Red Records
Номер по каталогу: CRCDMBOX 28
Страна: UK
Аудио кодек: FLAC (*.flac)
Тип рипа: image+.cue
Битрейт аудио: lossless
Продолжительность: 03:22:01
Источник (релизер): allekkss48
Наличие сканов в содержимом раздачи: да
Треклист:
#77701. Love Letters
02. Imagine You, Imagine Me
03. The Juggler
04. Patient Tigers
05. Only You Can
06. The More
07. Spirit
08. He's Hot Magic
09. Pisces Babies
10. Love Ship
11. Red Letter Day
Bonus Tracks:
12. Out Of My Body
13. If I Point At The Moon
14. Georgina Bailey
15. Pretty Boy
Код: Выделить всё
Exact Audio Copy V1.3 from 2. September 2016
EAC extraction logfile from 29. October 2019, 17:49
Fox / Fox
Used drive  : PLEXTOR BD-R  PX-B950SA   Adapter: 1  ID: 1
Read mode               : Secure
Utilize accurate stream : Yes
Defeat audio cache      : Yes
Make use of C2 pointers : No
Read offset correction                      : 6
Overread into Lead-In and Lead-Out          : No
Fill up missing offset samples with silence : Yes
Delete leading and trailing silent blocks   : No
Null samples used in CRC calculations       : Yes
Used interface                              : Native Win32 interface for Win NT & 2000
Used output format : Internal WAV Routines
Sample format      : 44.100 Hz; 16 Bit; Stereo
TOC of the extracted CD
     Track |   Start  |  Length  | Start sector | End sector
    ---------------------------------------------------------
        1  |  0:00.07 |  2:55.10 |         7    |    13141
        2  |  2:55.17 |  3:38.24 |     13142    |    29515
        3  |  6:33.41 |  3:15.65 |     29516    |    44205
        4  |  9:49.31 |  3:11.56 |     44206    |    58586
        5  | 13:01.12 |  3:27.16 |     58587    |    74127
        6  | 16:28.28 |  1:07.45 |     74128    |    79197
        7  | 17:35.73 |  2:58.06 |     79198    |    92553
        8  | 20:34.04 |  3:34.45 |     92554    |   108648
        9  | 24:08.49 |  3:41.59 |    108649    |   125282
       10  | 27:50.33 |  2:43.67 |    125283    |   137574
       11  | 30:34.25 |  3:33.65 |    137575    |   153614
       12  | 34:08.15 |  3:00.55 |    153615    |   167169
       13  | 37:08.70 |  3:09.70 |    167170    |   181414
       14  | 40:18.65 |  3:55.66 |    181415    |   199105
       15  | 44:14.56 |  3:35.58 |    199106    |   215288
Range status and errors
Selected range
     Filename C:\Users\Alex\Desktop\Lossless Galaxy ALLexxess\Fox\2017 The Fox Box (4CD Box Set Cherry Red Records)\1975 Fox\Fox - Fox.wav
     Peak level 99.8 %
     Extraction speed 7.0 X
     Range quality 100.0 %
     Test CRC 07C62248
     Copy CRC 07C62248
     Copy OK
No errors occurred
AccurateRip summary
Track  1  accurately ripped (confidence 5)  [7B445F2D]  (AR v2)
Track  2  accurately ripped (confidence 5)  [DEE68BE9]  (AR v2)
Track  3  accurately ripped (confidence 5)  [6E941A0A]  (AR v2)
Track  4  accurately ripped (confidence 5)  [5C75F09F]  (AR v2)
Track  5  accurately ripped (confidence 5)  [5211F79A]  (AR v2)
Track  6  accurately ripped (confidence 5)  [B0F840DA]  (AR v2)
Track  7  accurately ripped (confidence 5)  [87762CDC]  (AR v2)
Track  8  accurately ripped (confidence 5)  [1DD07ABC]  (AR v2)
Track  9  accurately ripped (confidence 5)  [7C80C04E]  (AR v2)
Track 10  accurately ripped (confidence 5)  [63AE6564]  (AR v2)
Track 11  accurately ripped (confidence 5)  [3844E3E8]  (AR v2)
Track 12  accurately ripped (confidence 5)  [FA501CA4]  (AR v2)
Track 13  accurately ripped (confidence 5)  [F63B7C04]  (AR v2)
Track 14  accurately ripped (confidence 5)  [F8A9943A]  (AR v2)
Track 15  accurately ripped (confidence 5)  [94C1FAF4]  (AR v2)
All tracks accurately ripped
End of status report
---- CUETools DB Plugin V2.1.6
[CTDB TOCID: OBA9YBHGWTeFPfzAlBJFrovVB6o-] found
Submit result: OBA9YBHGWTeFPfzAlBJFrovVB6o- has been confirmed
Track | CTDB Status
  1   | (20/20) Accurately ripped
  2   | (20/20) Accurately ripped
  3   | (20/20) Accurately ripped
  4   | (20/20) Accurately ripped
  5   | (20/20) Accurately ripped
  6   | (20/20) Accurately ripped
  7   | (20/20) Accurately ripped
  8   | (20/20) Accurately ripped
  9   | (20/20) Accurately ripped
 10   | (20/20) Accurately ripped
 11   | (20/20) Accurately ripped
 12   | (20/20) Accurately ripped
 13   | (20/20) Accurately ripped
 14   | (20/20) Accurately ripped
 15   | (20/20) Accurately ripped
==== Log checksum 9B9E786B988E9DA86B2B70C99F24E794646C5C28C59ABD56C1E541E8B8C90FA8 ====
Код: Выделить всё
REM GENRE "Pop Rock"
REM DATE 1975
REM DISCID C30B360F
REM COMMENT "ExactAudioCopy v1.3"
PERFORMER "Fox"
TITLE "Fox"
REM COMPOSER "Fox"
FILE "Fox - Fox.flac" WAVE
  TRACK 01 AUDIO
    TITLE "Love Letters"
    PERFORMER "Fox"
    REM COMPOSER "Fox"
    INDEX 00 00:00:00
    INDEX 01 00:00:07
  TRACK 02 AUDIO
    TITLE "Imagine Me Imagine You"
    PERFORMER "Fox"
    REM COMPOSER "Fox"
    INDEX 00 02:54:35
    INDEX 01 02:55:17
  TRACK 03 AUDIO
    TITLE "The Juggler"
    PERFORMER "Fox"
    REM COMPOSER "Fox"
    INDEX 00 06:32:59
    INDEX 01 06:33:41
  TRACK 04 AUDIO
    TITLE "Patient Tigers"
    PERFORMER "Fox"
    REM COMPOSER "Fox"
    INDEX 00 09:48:50
    INDEX 01 09:49:31
  TRACK 05 AUDIO
    TITLE "Only You Can"
    PERFORMER "Fox"
    REM COMPOSER "Fox"
    INDEX 00 13:00:30
    INDEX 01 13:01:12
  TRACK 06 AUDIO
    TITLE "The More"
    PERFORMER "Fox"
    REM COMPOSER "Fox"
    INDEX 00 16:27:47
    INDEX 01 16:28:28
  TRACK 07 AUDIO
    TITLE "Spirit"
    PERFORMER "Fox"
    REM COMPOSER "Fox"
    INDEX 00 17:35:16
    INDEX 01 17:35:73
  TRACK 08 AUDIO
    TITLE "He's Got Magic"
    PERFORMER "Fox"
    REM COMPOSER "Fox"
    INDEX 00 20:33:22
    INDEX 01 20:34:04
  TRACK 09 AUDIO
    TITLE "Pisces Baby"
    PERFORMER "Fox"
    REM COMPOSER "Fox"
    INDEX 00 24:07:67
    INDEX 01 24:08:49
  TRACK 10 AUDIO
    TITLE "Love Ship"
    PERFORMER "Fox"
    REM COMPOSER "Fox"
    INDEX 00 27:49:51
    INDEX 01 27:50:33
  TRACK 11 AUDIO
    TITLE "Red Letter Day"
    PERFORMER "Fox"
    REM COMPOSER "Fox"
    INDEX 01 30:34:25
  TRACK 12 AUDIO
    TITLE "Out Of My Body / Bonus Track"
    PERFORMER "Fox"
    REM COMPOSER "Fox"
    INDEX 00 34:07:34
    INDEX 01 34:08:15
  TRACK 13 AUDIO
    TITLE "If I Point At The Moon / Bonus Track"
    PERFORMER "Fox"
    REM COMPOSER "Fox"
    INDEX 00 37:08:13
    INDEX 01 37:08:70
  TRACK 14 AUDIO
    TITLE "Georgina Bailey / Bonus Track"
    PERFORMER "Fox"
    REM COMPOSER "Fox"
    INDEX 00 40:18:08
    INDEX 01 40:18:65
  TRACK 15 AUDIO
    TITLE "Pretty Boy / Bonus Track"
    PERFORMER "Fox"
    REM COMPOSER "Fox"
    INDEX 00 44:14:00
    INDEX 01 44:14:56
Код: Выделить всё
-----------------------
DON'T MODIFY THIS FILE
-----------------------
PERFORMER: auCDtect Task Manager, ver. 1.6.0 RC1 build 1.6.0.1
Copyright (c) 2008-2010 y-soft. All rights reserved
[url=http://y-soft.org]http://y-soft.org[/url]
ANALYZER: auCDtect: CD records authenticity detector, version 0.8.2
Copyright (c) 2004 Oleg Berngardt. All rights reserved.
Copyright (c) 2004 Alexander Djourik. All rights reserved.
FILE: Fox - Fox.wav
  Size: 506359772 Hash: 18C0DD6A9C4CE215158D1EBDD203A4B2 Accuracy: -m8
  Conclusion: CDDA 100%
  Signature: FC17EBCD49ED5C6C4A7374B006FB34D2172854AB
FILE: Fox - Fox.flac
  Size: 339553106 Hash: 18C0DD6A9C4CE215158D1EBDD203A4B2 Accuracy: -m8
  Conclusion: CDDA 100%
  Signature: CC06352CCF0E478225C8714D6211F1A49169572E
#77701. Yuli, Yuli
02. Survival
03. Strange Ships
04. For Whatever It's Worth
05. Little Brown Box
06. Minor Therapy
07. Lily Sing
08. Kupu Kupu
09. Howdja
10. Me Without You
Bonus Tracks:
11. Just One More Night
12. 2 Rude 4 Words
Код: Выделить всё
Exact Audio Copy V1.3 from 2. September 2016
EAC extraction logfile from 29. October 2019, 17:18
Fox / Tails Of Illusion
Used drive  : PLEXTOR BD-R  PX-B950SA   Adapter: 1  ID: 1
Read mode               : Secure
Utilize accurate stream : Yes
Defeat audio cache      : Yes
Make use of C2 pointers : No
Read offset correction                      : 6
Overread into Lead-In and Lead-Out          : No
Fill up missing offset samples with silence : Yes
Delete leading and trailing silent blocks   : No
Null samples used in CRC calculations       : Yes
Used interface                              : Native Win32 interface for Win NT & 2000
Used output format : Internal WAV Routines
Sample format      : 44.100 Hz; 16 Bit; Stereo
TOC of the extracted CD
     Track |   Start  |  Length  | Start sector | End sector
    ---------------------------------------------------------
        1  |  0:00.07 |  3:38.68 |         7    |    16424
        2  |  3:39.00 |  4:17.09 |     16425    |    35708
        3  |  7:56.09 |  5:01.42 |     35709    |    58325
        4  | 12:57.51 |  2:52.74 |     58326    |    71299
        5  | 15:50.50 |  4:16.57 |     71300    |    90556
        6  | 20:07.32 |  5:00.55 |     90557    |   113111
        7  | 25:08.12 |  3:14.25 |    113112    |   127686
        8  | 28:22.37 |  5:50.25 |    127687    |   153961
        9  | 34:12.62 |  3:28.47 |    153962    |   169608
       10  | 37:41.34 |  4:12.58 |    169609    |   188566
       11  | 41:54.17 |  4:00.10 |    188567    |   206576
       12  | 45:54.27 |  4:31.07 |    206577    |   226908
Range status and errors
Selected range
     Filename C:\Users\Alex\Desktop\Lossless Galaxy ALLexxess\Fox\2017 The Fox Box (4CD Box Set Cherry Red Records)\1975 Tails Of Illusion\Fox - Tails Of Illusion.wav
     Peak level 97.4 %
     Extraction speed 7.0 X
     Range quality 100.0 %
     Test CRC BFBD8BC5
     Copy CRC BFBD8BC5
     Copy OK
No errors occurred
AccurateRip summary
Track  1  accurately ripped (confidence 5)  [2F9511AF]  (AR v2)
Track  2  accurately ripped (confidence 5)  [AEE8FD12]  (AR v2)
Track  3  accurately ripped (confidence 5)  [1B6EB9FC]  (AR v2)
Track  4  accurately ripped (confidence 5)  [3BFC4A93]  (AR v2)
Track  5  accurately ripped (confidence 5)  [D450559B]  (AR v2)
Track  6  accurately ripped (confidence 5)  [92E6697B]  (AR v2)
Track  7  accurately ripped (confidence 5)  [C571D3C1]  (AR v2)
Track  8  accurately ripped (confidence 5)  [1980037E]  (AR v2)
Track  9  accurately ripped (confidence 5)  [4831C215]  (AR v2)
Track 10  accurately ripped (confidence 5)  [E09221C4]  (AR v2)
Track 11  accurately ripped (confidence 5)  [8F473DE6]  (AR v2)
Track 12  accurately ripped (confidence 5)  [08710F40]  (AR v2)
All tracks accurately ripped
End of status report
---- CUETools DB Plugin V2.1.6
[CTDB TOCID: uPg.zaCnYCeB.GgKLzhB66sl.cU-] found
Submit result: uPg.zaCnYCeB.GgKLzhB66sl.cU- has been confirmed
Track | CTDB Status
  1   | (20/20) Accurately ripped
  2   | (20/20) Accurately ripped
  3   | (20/20) Accurately ripped
  4   | (20/20) Accurately ripped
  5   | (20/20) Accurately ripped
  6   | (20/20) Accurately ripped
  7   | (20/20) Accurately ripped
  8   | (20/20) Accurately ripped
  9   | (20/20) Accurately ripped
 10   | (20/20) Accurately ripped
 11   | (20/20) Accurately ripped
 12   | (20/20) Accurately ripped
==== Log checksum CB7E8137340F97034BD903C278AC20F51CD24AE649FD570D742A267B9B1D152B ====
Код: Выделить всё
REM GENRE "Pop Rock"
REM DATE 1975
REM DISCID 9A0BD10C
REM COMMENT "ExactAudioCopy v1.3"
PERFORMER "Fox"
TITLE "Tails Of Illusion"
REM COMPOSER "Fox"
FILE "Fox - Tails Of Illusion.flac" WAVE
  TRACK 01 AUDIO
    TITLE "Yuli Yuli"
    PERFORMER "Fox"
    REM COMPOSER "Fox"
    FLAGS DCP
    INDEX 00 00:00:00
    INDEX 01 00:00:07
  TRACK 02 AUDIO
    TITLE "Survival"
    PERFORMER "Fox"
    REM COMPOSER "Fox"
    FLAGS DCP
    INDEX 01 03:39:00
  TRACK 03 AUDIO
    TITLE "Strange Ships"
    PERFORMER "Fox"
    REM COMPOSER "Fox"
    FLAGS DCP
    INDEX 01 07:56:09
  TRACK 04 AUDIO
    TITLE "For Whatever It's Worth"
    PERFORMER "Fox"
    REM COMPOSER "Fox"
    FLAGS DCP
    INDEX 01 12:57:51
  TRACK 05 AUDIO
    TITLE "Little Brown Box"
    PERFORMER "Fox"
    REM COMPOSER "Fox"
    FLAGS DCP
    INDEX 00 15:48:51
    INDEX 01 15:50:50
  TRACK 06 AUDIO
    TITLE "Minor Therapy"
    PERFORMER "Fox"
    REM COMPOSER "Fox"
    FLAGS DCP
    INDEX 00 20:05:33
    INDEX 01 20:07:32
  TRACK 07 AUDIO
    TITLE "Lily Sing"
    PERFORMER "Fox"
    REM COMPOSER "Fox"
    FLAGS DCP
    INDEX 01 25:08:12
  TRACK 08 AUDIO
    TITLE "Kupu Kupu"
    PERFORMER "Fox"
    REM COMPOSER "Fox"
    FLAGS DCP
    INDEX 01 28:22:37
  TRACK 09 AUDIO
    TITLE "Howja"
    PERFORMER "Fox"
    REM COMPOSER "Fox"
    FLAGS DCP
    INDEX 01 34:12:62
  TRACK 10 AUDIO
    TITLE "Me Without You"
    PERFORMER "Fox"
    REM COMPOSER "Fox"
    FLAGS DCP
    INDEX 00 37:39:35
    INDEX 01 37:41:34
  TRACK 11 AUDIO
    TITLE "Just One More Night / Bonus Track"
    PERFORMER "Fox"
    REM COMPOSER "Fox"
    FLAGS DCP
    INDEX 00 41:52:18
    INDEX 01 41:54:17
  TRACK 12 AUDIO
    TITLE "2 Rude 4 Words / Bonus Track"
    PERFORMER "Fox"
    REM COMPOSER "Fox"
    FLAGS DCP
    INDEX 00 45:52:28
    INDEX 01 45:54:27
Код: Выделить всё
-----------------------
DON'T MODIFY THIS FILE
-----------------------
PERFORMER: auCDtect Task Manager, ver. 1.6.0 RC1 build 1.6.0.1
Copyright (c) 2008-2010 y-soft. All rights reserved
[url=http://y-soft.org]http://y-soft.org[/url]
ANALYZER: auCDtect: CD records authenticity detector, version 0.8.2
Copyright (c) 2004 Oleg Berngardt. All rights reserved.
Copyright (c) 2004 Alexander Djourik. All rights reserved.
FILE: Fox - Tails Of Illusion.wav
  Size: 533690012 Hash: D0A6EA814063A64727AA88B5159244C3 Accuracy: -m8
  Conclusion: CDDA 100%
  Signature: 77BFC38B6496DF9E09CE1057D1E7846943C10E25
FILE: Fox - Tails Of Illusion.flac
  Size: 349294610 Hash: D0A6EA814063A64727AA88B5159244C3 Accuracy: -m8
  Conclusion: CDDA 100%
  Signature: BBF1630E9E50A4BC7A9D3CF9ED5EEA29BE326D30
#77701. S-S-S-Single Bed
02. Livin' Out My Fantasies
03. Dejenina
04. Blue Hotel
05. Almond Eyes
06. Magic Machine
07. My Old Man's Away
08. Moustaches On The Moon
09. Under You Own Umbrella
10. Friendship Rose
11. Make It Like It Used To Be
Bonus Track:
12. Pain & Pleasure
Код: Выделить всё
Exact Audio Copy V1.3 from 2. September 2016
EAC extraction logfile from 29. October 2019, 12:03
Fox / Blue Hotel
Used drive  : PLEXTOR BD-R  PX-B950SA   Adapter: 1  ID: 1
Read mode               : Secure
Utilize accurate stream : Yes
Defeat audio cache      : Yes
Make use of C2 pointers : No
Read offset correction                      : 6
Overread into Lead-In and Lead-Out          : No
Fill up missing offset samples with silence : Yes
Delete leading and trailing silent blocks   : No
Null samples used in CRC calculations       : Yes
Used interface                              : Native Win32 interface for Win NT & 2000
Used output format : Internal WAV Routines
Sample format      : 44.100 Hz; 16 Bit; Stereo
TOC of the extracted CD
     Track |   Start  |  Length  | Start sector | End sector
    ---------------------------------------------------------
        1  |  0:00.00 |  3:51.64 |         0    |    17388
        2  |  3:51.64 |  3:10.44 |     17389    |    31682
        3  |  7:02.33 |  3:41.07 |     31683    |    48264
        4  | 10:43.40 |  4:05.54 |     48265    |    66693
        5  | 14:49.19 |  3:29.26 |     66694    |    82394
        6  | 18:18.45 |  4:00.65 |     82395    |   100459
        7  | 22:19.35 |  3:43.29 |    100460    |   117213
        8  | 26:02.64 |  3:39.10 |    117214    |   133648
        9  | 29:41.74 |  3:01.47 |    133649    |   147270
       10  | 32:43.46 |  2:55.12 |    147271    |   160407
       11  | 35:38.58 |  3:04.46 |    160408    |   174253
       12  | 38:43.29 |  5:32.70 |    174254    |   199223
Range status and errors
Selected range
     Filename C:\Users\Alex\Desktop\Lossless Galaxy ALLexxess\Fox\2017 The Fox Box (4CD Box Set Cherry Red Records)\1977 Blue Hotel\Fox - Blue Hotel.wav
     Peak level 100.0 %
     Extraction speed 6.7 X
     Range quality 99.9 %
     Test CRC 8C6CADAA
     Copy CRC 8C6CADAA
     Copy OK
No errors occurred
AccurateRip summary
Track  1  accurately ripped (confidence 5)  [D1A86C71]  (AR v2)
Track  2  accurately ripped (confidence 5)  [8CD1F537]  (AR v2)
Track  3  accurately ripped (confidence 5)  [457A6CCB]  (AR v2)
Track  4  accurately ripped (confidence 5)  [34B7ECFB]  (AR v2)
Track  5  accurately ripped (confidence 5)  [B81DED8B]  (AR v2)
Track  6  accurately ripped (confidence 5)  [0EFBBA34]  (AR v2)
Track  7  accurately ripped (confidence 5)  [9BA52645]  (AR v2)
Track  8  accurately ripped (confidence 5)  [AA3A25F7]  (AR v2)
Track  9  accurately ripped (confidence 5)  [F88423CA]  (AR v2)
Track 10  accurately ripped (confidence 5)  [6E2B975D]  (AR v2)
Track 11  accurately ripped (confidence 5)  [64A93C5B]  (AR v2)
Track 12  accurately ripped (confidence 5)  [7327CCE3]  (AR v2)
All tracks accurately ripped
End of status report
---- CUETools DB Plugin V2.1.6
[CTDB TOCID: QdF8jMAxs9Re9_VKo4ZSbfDAg2s-] found
Submit result: QdF8jMAxs9Re9_VKo4ZSbfDAg2s- has been confirmed
Track | CTDB Status
  1   | (20/20) Accurately ripped
  2   | (20/20) Accurately ripped
  3   | (20/20) Accurately ripped
  4   | (20/20) Accurately ripped
  5   | (20/20) Accurately ripped
  6   | (20/20) Accurately ripped
  7   | (20/20) Accurately ripped
  8   | (20/20) Accurately ripped
  9   | (20/20) Accurately ripped
 10   | (20/20) Accurately ripped
 11   | (20/20) Accurately ripped
 12   | (20/20) Accurately ripped
==== Log checksum F31B2BA50C2D62448A1BE82166953A9680B6F16404EFF548D1BA3E9CFF58FD02 ====
Код: Выделить всё
REM GENRE "Pop / Rock"
REM DATE 1977
REM DISCID 8B0A600C
REM COMMENT "ExactAudioCopy v1.3"
PERFORMER "Fox"
TITLE "Blue Hotel"
REM COMPOSER "Fox"
FILE "Fox - Blue Hotel.flac" WAVE
  TRACK 01 AUDIO
    TITLE "S-S-S-Single Bed"
    PERFORMER "Fox"
    REM COMPOSER "Fox"
    FLAGS DCP
    INDEX 01 00:00:00
  TRACK 02 AUDIO
    TITLE "Livin' Out My Fantasies"
    PERFORMER "Fox"
    REM COMPOSER "Fox"
    FLAGS DCP
    INDEX 00 03:49:19
    INDEX 01 03:51:64
  TRACK 03 AUDIO
    TITLE "Dejenina"
    PERFORMER "Fox"
    REM COMPOSER "Fox"
    FLAGS DCP
    INDEX 00 07:00:34
    INDEX 01 07:02:33
  TRACK 04 AUDIO
    TITLE "Blue Hotel"
    PERFORMER "Fox"
    REM COMPOSER "Fox"
    FLAGS DCP
    INDEX 00 10:41:41
    INDEX 01 10:43:40
  TRACK 05 AUDIO
    TITLE "Almond Eyes"
    PERFORMER "Fox"
    REM COMPOSER "Fox"
    FLAGS DCP
    INDEX 00 14:47:55
    INDEX 01 14:49:19
  TRACK 06 AUDIO
    TITLE "Magic Machine"
    PERFORMER "Fox"
    REM COMPOSER "Fox"
    FLAGS DCP
    INDEX 00 18:16:46
    INDEX 01 18:18:45
  TRACK 07 AUDIO
    TITLE "My Old Man's Away"
    PERFORMER "Fox"
    REM COMPOSER "Fox"
    FLAGS DCP
    INDEX 00 22:17:68
    INDEX 01 22:19:35
  TRACK 08 AUDIO
    TITLE "Moustaches On The Moon"
    PERFORMER "Fox"
    REM COMPOSER "Fox"
    FLAGS DCP
    INDEX 00 26:01:24
    INDEX 01 26:02:64
  TRACK 09 AUDIO
    TITLE "Under Your Own Umbrella"
    PERFORMER "Fox"
    REM COMPOSER "Fox"
    FLAGS DCP
    INDEX 00 29:40:00
    INDEX 01 29:41:74
  TRACK 10 AUDIO
    TITLE "Friendship Rose"
    PERFORMER "Fox"
    REM COMPOSER "Fox"
    FLAGS DCP
    INDEX 00 32:41:47
    INDEX 01 32:43:46
  TRACK 11 AUDIO
    TITLE "Make It Like It Used To Be"
    PERFORMER "Fox"
    REM COMPOSER "Fox"
    FLAGS DCP
    INDEX 00 35:36:59
    INDEX 01 35:38:58
  TRACK 12 AUDIO
    TITLE "Pain & Pleasure / Bonus Track"
    PERFORMER "Fox"
    REM COMPOSER "Fox"
    FLAGS DCP
    INDEX 00 38:41:45
    INDEX 01 38:43:29
Код: Выделить всё
-----------------------
DON'T MODIFY THIS FILE
-----------------------
PERFORMER: auCDtect Task Manager, ver. 1.6.0 RC1 build 1.6.0.1
Copyright (c) 2008-2010 y-soft. All rights reserved
[url=http://y-soft.org]http://y-soft.org[/url]
ANALYZER: auCDtect: CD records authenticity detector, version 0.8.2
Copyright (c) 2004 Oleg Berngardt. All rights reserved.
Copyright (c) 2004 Alexander Djourik. All rights reserved.
FILE: Fox - Blue Hotel.wav
  Size: 468574892 Hash: 4C7FAB87A8C573DFEAA42A6A7802D35A Accuracy: -m8
  Conclusion: CDDA 100%
  Signature: 24E5A9E515A8E0874C5102E5E8B6CA80D9C1B6BF
FILE: Fox - Blue Hotel.flac
  Size: 297385706 Hash: 4C7FAB87A8C573DFEAA42A6A7802D35A Accuracy: -m8
  Conclusion: CDDA 100%
  Signature: EB4E0D9A05831572B8ECD12B016FD42B43602290
#77701. Only You Can
02. Imagine Me, Imagine You
03. He's Got Magic
04. Strange Ships
05. S-S-S-Single Bed
06. My Old Man's Away
07. If You Don't Want My Peaches
08. Silk Milk
09. Model In A Leotard
10. I Want To Be Alone
11. Electro People
12. Are You Sure?
13. Dancing With An Alien
14. Teyo
15. Temple Of Love
16. Torn Between Two Worlds
17. Captain Of Your Ship
Код: Выделить всё
Exact Audio Copy V1.3 from 2. September 2016
EAC extraction logfile from 29. October 2019, 11:36
Fox / Images (A Selection)
Used drive  : PLEXTOR BD-R  PX-B950SA   Adapter: 1  ID: 1
Read mode               : Secure
Utilize accurate stream : Yes
Defeat audio cache      : Yes
Make use of C2 pointers : No
Read offset correction                      : 6
Overread into Lead-In and Lead-Out          : No
Fill up missing offset samples with silence : Yes
Delete leading and trailing silent blocks   : No
Null samples used in CRC calculations       : Yes
Used interface                              : Native Win32 interface for Win NT & 2000
Used output format : Internal WAV Routines
Sample format      : 44.100 Hz; 16 Bit; Stereo
TOC of the extracted CD
     Track |   Start  |  Length  | Start sector | End sector
    ---------------------------------------------------------
        1  |  0:00.00 |  3:05.59 |         0    |    13933
        2  |  3:05.59 |  3:39.40 |     13934    |    30398
        3  |  6:45.24 |  3:35.58 |     30399    |    46581
        4  | 10:21.07 |  4:15.15 |     46582    |    65721
        5  | 14:36.22 |  3:49.01 |     65722    |    82897
        6  | 18:25.23 |  3:43.22 |     82898    |    99644
        7  | 22:08.45 |  3:58.41 |     99645    |   117535
        8  | 26:07.11 |  4:01.14 |    117536    |   135624
        9  | 30:08.25 |  3:16.12 |    135625    |   150336
       10  | 33:24.37 |  3:22.22 |    150337    |   165508
       11  | 36:46.59 |  3:30.14 |    165509    |   181272
       12  | 40:16.73 |  3:44.59 |    181273    |   198131
       13  | 44:01.57 |  4:28.15 |    198132    |   218246
       14  | 48:29.72 |  4:08.52 |    218247    |   236898
       15  | 52:38.49 |  3:30.73 |    236899    |   252721
       16  | 56:09.47 |  4:40.54 |    252722    |   273775
       17  | 60:50.26 |  4:20.23 |    273776    |   293298
Range status and errors
Selected range
     Filename C:\Users\Alex\Desktop\Lossless Galaxy ALLexxess\Fox\2017 The Fox Box (4CD Box Set Cherry Red Records)\2017 Images - A Selection\Fox - Images (A Selection).wav
     Peak level 99.1 %
     Extraction speed 7.4 X
     Range quality 99.9 %
     Test CRC E09931FB
     Copy CRC E09931FB
     Copy OK
No errors occurred
AccurateRip summary
Track  1  accurately ripped (confidence 5)  [8EB3E322]  (AR v2)
Track  2  accurately ripped (confidence 5)  [5F4C91A7]  (AR v2)
Track  3  accurately ripped (confidence 5)  [7051C172]  (AR v2)
Track  4  accurately ripped (confidence 5)  [76B312F0]  (AR v2)
Track  5  accurately ripped (confidence 5)  [C6791F3B]  (AR v2)
Track  6  accurately ripped (confidence 5)  [36E9CBE6]  (AR v2)
Track  7  accurately ripped (confidence 5)  [8612DF0E]  (AR v2)
Track  8  accurately ripped (confidence 5)  [A9D59EEC]  (AR v2)
Track  9  accurately ripped (confidence 5)  [D871BFE1]  (AR v2)
Track 10  accurately ripped (confidence 5)  [C9FCF590]  (AR v2)
Track 11  accurately ripped (confidence 5)  [EED55E7F]  (AR v2)
Track 12  accurately ripped (confidence 5)  [FD05D21D]  (AR v2)
Track 13  accurately ripped (confidence 5)  [A6BA89B8]  (AR v2)
Track 14  accurately ripped (confidence 5)  [3C6FFDD0]  (AR v2)
Track 15  accurately ripped (confidence 5)  [BCCCCC9F]  (AR v2)
Track 16  accurately ripped (confidence 5)  [5F7BF51A]  (AR v2)
Track 17  accurately ripped (confidence 5)  [6B4A3E56]  (AR v2)
All tracks accurately ripped
End of status report
---- CUETools DB Plugin V2.1.6
[CTDB TOCID: VPOaJlvAGr6p961G7OlCdfpxvsE-] found
Submit result: VPOaJlvAGr6p961G7OlCdfpxvsE- has been confirmed
Track | CTDB Status
  1   | (19/19) Accurately ripped
  2   | (19/19) Accurately ripped
  3   | (19/19) Accurately ripped
  4   | (19/19) Accurately ripped
  5   | (19/19) Accurately ripped
  6   | (19/19) Accurately ripped
  7   | (19/19) Accurately ripped
  8   | (19/19) Accurately ripped
  9   | (19/19) Accurately ripped
 10   | (19/19) Accurately ripped
 11   | (19/19) Accurately ripped
 12   | (19/19) Accurately ripped
 13   | (19/19) Accurately ripped
 14   | (19/19) Accurately ripped
 15   | (19/19) Accurately ripped
 16   | (19/19) Accurately ripped
 17   | (19/19) Accurately ripped
==== Log checksum 03623689F6F99B1FCBFCAC1BBA925261C07293322FCBC5A037CE51971E75D84E ====
Код: Выделить всё
REM GENRE "Pop Rock"
REM DATE 2017
REM DISCID D50F4611
REM COMMENT "ExactAudioCopy v1.3"
PERFORMER "Fox"
TITLE "Images (A Selection)"
REM COMPOSER "Fox"
FILE "Fox - Images (A Selection).flac" WAVE
  TRACK 01 AUDIO
    TITLE "Only You Can"
    PERFORMER "Fox"
    REM COMPOSER "Fox"
    INDEX 01 00:00:00
  TRACK 02 AUDIO
    TITLE "Imagine Me, Imagine You"
    PERFORMER "Fox"
    REM COMPOSER "Fox"
    INDEX 00 03:05:35
    INDEX 01 03:05:59
  TRACK 03 AUDIO
    TITLE "He's Got Magic"
    PERFORMER "Fox"
    REM COMPOSER "Fox"
    INDEX 00 06:44:07
    INDEX 01 06:45:24
  TRACK 04 AUDIO
    TITLE "Strange Ships"
    PERFORMER "Fox"
    REM COMPOSER "Fox"
    INDEX 00 10:19:02
    INDEX 01 10:21:07
  TRACK 05 AUDIO
    TITLE "S-S-S-Single Bed"
    PERFORMER "Fox"
    REM COMPOSER "Fox"
    INDEX 00 14:34:56
    INDEX 01 14:36:22
  TRACK 06 AUDIO
    TITLE "My Old Man's Away"
    PERFORMER "Fox"
    REM COMPOSER "Fox"
    INDEX 00 18:24:12
    INDEX 01 18:25:23
  TRACK 07 AUDIO
    TITLE "If You Don't Want My Peaches"
    PERFORMER "Fox"
    REM COMPOSER "Fox"
    INDEX 00 22:07:64
    INDEX 01 22:08:45
  TRACK 08 AUDIO
    TITLE "Silk Milk"
    PERFORMER "Fox"
    REM COMPOSER "Fox"
    INDEX 00 26:05:61
    INDEX 01 26:07:11
  TRACK 09 AUDIO
    TITLE "Model In A Leotard"
    PERFORMER "Fox"
    REM COMPOSER "Fox"
    INDEX 00 30:07:39
    INDEX 01 30:08:25
  TRACK 10 AUDIO
    TITLE "I Want Be Alone "
    PERFORMER "Fox"
    REM COMPOSER "Fox"
    INDEX 00 33:23:50
    INDEX 01 33:24:37
  TRACK 11 AUDIO
    TITLE "Electro People"
    PERFORMER "Fox"
    REM COMPOSER "Fox"
    INDEX 00 36:45:37
    INDEX 01 36:46:59
  TRACK 12 AUDIO
    TITLE "Are You Sure?"
    PERFORMER "Fox"
    REM COMPOSER "Fox"
    INDEX 00 40:15:12
    INDEX 01 40:16:73
  TRACK 13 AUDIO
    TITLE "Dancing With An Alien"
    PERFORMER "Fox"
    REM COMPOSER "Fox"
    INDEX 00 44:01:25
    INDEX 01 44:01:57
  TRACK 14 AUDIO
    TITLE "Teyo"
    PERFORMER "Fox"
    REM COMPOSER "Fox"
    INDEX 00 48:29:27
    INDEX 01 48:29:72
  TRACK 15 AUDIO
    TITLE "Temple Of Love"
    PERFORMER "Fox"
    REM COMPOSER "Fox"
    INDEX 00 52:37:56
    INDEX 01 52:38:49
  TRACK 16 AUDIO
    TITLE "Torn Between Two Worlds"
    PERFORMER "Fox"
    REM COMPOSER "Fox"
    INDEX 00 56:08:46
    INDEX 01 56:09:47
  TRACK 17 AUDIO
    TITLE "Captain Of Your Ship"
    PERFORMER "Fox"
    REM COMPOSER "Fox"
    INDEX 00 60:49:53
    INDEX 01 60:50:26
Код: Выделить всё
-----------------------
DON'T MODIFY THIS FILE
-----------------------
PERFORMER: auCDtect Task Manager, ver. 1.6.0 RC1 build 1.6.0.1
Copyright (c) 2008-2010 y-soft. All rights reserved
[url=http://y-soft.org]http://y-soft.org[/url]
ANALYZER: auCDtect: CD records authenticity detector, version 0.8.2
Copyright (c) 2004 Oleg Berngardt. All rights reserved.
Copyright (c) 2004 Alexander Djourik. All rights reserved.
FILE: Fox - Images (A Selection).wav
  Size: 689839292 Hash: F3AB39A6C9541183591903E11C63A005 Accuracy: -m8
  Conclusion: MPEG 95%
  Signature: 4C61C0BA1C7D8A8964D96036D16EA4F8B62422E0
FILE: Fox - Images (A Selection).flac
  Size: 420865027 Hash: F3AB39A6C9541183591903E11C63A005 Accuracy: -m8
  Conclusion: MPEG 95%
  Signature: 4E0325473CBF76089B000B38C50F9F2476F9D790
[url=https://funkyimg.com/view/2YyNE][img]https://funkyimg.com/p/2YyNE.jpg[/img][/url]
Доп. информация

Performer:
Fox
Box Set:
2017 The Fox Box
1975 Fox; 1975 Tails Of Illusion
1977 Blue Hotel; 2017 Images - A Selection
(4CD Box Set Cherry Red Records)
Info:
Samaguru Productions Limited / Cherry Red Records
Catalog Box: CRCDMBOX 28
Catalog Discs: CRCDMBOX 28/CD1~CD4
Made EU
Dynamic Range: 8 / 8 / 9 / 8
Released Year: 2017
https://www.discogs.com/Fox-The-Fox-Box/release/9792029
Правила, инструкции, FAQ!!!
Торрент  Добавлен [09 ноя 2019, 12:41] Скачать торрент Магнет ссылка
Скачать торрент
14.47 КБ

Статус
Проверен 
 
Размер  2.03 ГБ
Приватный: Нет (DHT включён)
.torrent скачан  1
Как залить торрент? | Как скачать Torrent? | Как смотреть и слушать онлайн?  
Гость
 


Вернуться в Progressive & Art-Rock

Кто сейчас на конференции

Сейчас этот форум просматривают: нет зарегистрированных пользователей и гости: 0