(Rock) [CD] VA - FUZZbox vol.14 (приложение к журналу FUZZ август 2001: Animal Джаz, Рада и Терновник, Пилот, Deadушки, Король и Шут, Чиж & Чернецкий и др.) - 2001, FLAC (tracks+.cue), lossless


Статистика раздачи
Размер: 1.46 ГБ | Добавлен: 26 май 2019, 17:08 | Скачали: 2
Сидеров: 3  [0 байт/сек]    Личеров: 2  [0 байт/сек]

Сообщение Гость » 26 май 2019, 17:08

FUZZbox vol.14 (приложение к журналу FUZZ август 2001)

Жанр: Rock
Носитель: CD
Страна-производитель диска (релиза): Россия
Год издания: 2001
Издатель (лейбл): Fuzz
Номер по каталогу: б/н
Страна исполнителя (группы): Various
Аудиокодек: FLAC (*.flac)
Тип рипа: tracks+.cue
Продолжительность: 1:14:17.627 (196 581 336 samples)
Источник: собственный рип
Наличие сканов в содержимом раздачи: да
Треклист:
01. Animal Джаz / Реквием [0:03:18.72]
02. Рада и Терновник / Когда Будет Тепло [0:03:41.39]
03. Пилот / Зима В Муммидоле [0:03:47.54]
04. Бабслэй / Испанская [0:02:18.39]
05. Johns Quijote / Парус (Беспокойство) [0:01:48.67]
06. Chiron / Love Is... [0:04:09.00]
07. Камикадзе / Лунофобия [0:03:40.71]
08. Deadушки / Плюшевый Ад [0:04:24.52]
09. Катюша / Видимо Сон [0:03:22.66]
10. Этника / На Крыле [0:07:18.09]
11. 8-я Марта / Билли-Винки [0:03:12.47]
12. Король и Шут / Ели Мясо Мужики (Оригинальная Версия) [0:02:15.53]
13. Очистные Сооружения / Глобус [0:02:38.50]
14. Картель / Стерва [0:02:52.10]
15. Генератор Пэ / Лето [0:04:47.66]
16. Protozoa / Она Не Знала Как [0:04:06.42]
17. Седьмое Небо / Неудачный День [0:05:20.14]
18. Лена Тэ / День Ото Дня [0:03:39.10]
19. Чиж & Чернецкий / Субмарина (Live in NY) [0:04:05.15]
20. 7 Прохожий / Выше [0:03:28.21]
Код: Выделить всё
Exact Audio Copy V1.3 from 2. September 2016
EAC extraction logfile from 16. May 2019, 15:01
Various / FUZZbox vol.14 (FUZZ август 2001)
Used drive  : MATSHITADVD-RAM UJ8B0AW   Adapter: 1  ID: 0
Read mode               : Secure
Utilize accurate stream : Yes
Defeat audio cache      : Yes
Make use of C2 pointers : No
Read offset correction                      : 102
Overread into Lead-In and Lead-Out          : No
Fill up missing offset samples with silence : Yes
Delete leading and trailing silent blocks   : No
Null samples used in CRC calculations       : Yes
Used interface                              : Native Win32 interface for Win NT & 2000
Gap handling                                : Appended to previous track
Used output format              : User Defined Encoder
Selected bitrate                : 1024 kBit/s
Quality                         : High
Add ID3 tag                     : No
Command line compressor         : C:\Program Files (x86)\Exact Audio Copy\FLAC\FLAC.EXE
Additional command line options : -V -8 -T "Genre=%genre%" -T "Artist=%artist%" -T "Title=%title%" -T "Album=%albumtitle%" -T "Date=%year%" -T "Tracknumber=%tracknr%" -T "Comment=%comment%" %source%
TOC of the extracted CD
     Track |   Start  |  Length  | Start sector | End sector
    ---------------------------------------------------------
        1  |  0:00.00 |  3:18.72 |         0    |    14921
        2  |  3:18.72 |  3:41.39 |     14922    |    31535
        3  |  7:00.36 |  3:47.54 |     31536    |    48614
        4  | 10:48.15 |  2:18.39 |     48615    |    59003
        5  | 13:06.54 |  1:48.67 |     59004    |    67170
        6  | 14:55.46 |  4:09.00 |     67171    |    85845
        7  | 19:04.46 |  3:40.71 |     85846    |   102416
        8  | 22:45.42 |  4:24.52 |    102417    |   122268
        9  | 27:10.19 |  3:22.66 |    122269    |   137484
       10  | 30:33.10 |  7:18.09 |    137485    |   170343
       11  | 37:51.19 |  3:12.47 |    170344    |   184790
       12  | 41:03.66 |  2:15.53 |    184791    |   194968
       13  | 43:19.44 |  2:38.50 |    194969    |   206868
       14  | 45:58.19 |  2:52.10 |    206869    |   219778
       15  | 48:50.29 |  4:47.66 |    219779    |   241369
       16  | 53:38.20 |  4:06.42 |    241370    |   259861
       17  | 57:44.62 |  5:20.14 |    259862    |   283875
       18  | 63:05.01 |  3:39.10 |    283876    |   300310
       19  | 66:44.11 |  4:05.15 |    300311    |   318700
       20  | 70:49.26 |  3:28.21 |    318701    |   334321
Track  1
     Filename R:\FUZZbox vol.14 (FUZZ август 2001)\01. Animal Джаz - Реквием.wav
     Pre-gap length  0:00:02.00
     Peak level 98.3 %
     Extraction speed 1.1 X
     Track quality 100.0 %
     Test CRC 4B8DE453
     Copy CRC 4B8DE453
     Accurately ripped (confidence 2)  [7CD5995E]  (AR v2)
     Copy OK
Track  2
     Filename R:\FUZZbox vol.14 (FUZZ август 2001)\02. Рада и Терновник - Когда Будет Тепло.wav
     Pre-gap length  0:00:02.00
     Peak level 92.7 %
     Extraction speed 1.3 X
     Track quality 100.0 %
     Test CRC 06A50C6F
     Copy CRC 06A50C6F
     Accurately ripped (confidence 2)  [2164ECE6]  (AR v2)
     Copy OK
Track  3
     Filename R:\FUZZbox vol.14 (FUZZ август 2001)\03. Пилот - Зима В Муммидоле.wav
     Pre-gap length  0:00:02.00
     Peak level 79.3 %
     Extraction speed 1.2 X
     Track quality 99.9 %
     Test CRC 723311E1
     Copy CRC 723311E1
     Accurately ripped (confidence 2)  [BF638928]  (AR v2)
     Copy OK
Track  4
     Filename R:\FUZZbox vol.14 (FUZZ август 2001)\04. Бабслэй - Испанская.wav
     Pre-gap length  0:00:02.00
     Peak level 98.8 %
     Extraction speed 1.3 X
     Track quality 100.0 %
     Test CRC 91C9C5C6
     Copy CRC 91C9C5C6
     Accurately ripped (confidence 2)  [8F14AF37]  (AR v2)
     Copy OK
Track  5
     Filename R:\FUZZbox vol.14 (FUZZ август 2001)\05. Johns Quijote - Парус (Беспокойство).wav
     Pre-gap length  0:00:02.01
     Peak level 90.3 %
     Extraction speed 1.0 X
     Track quality 99.9 %
     Test CRC 07796392
     Copy CRC 07796392
     Accurately ripped (confidence 2)  [96EFA7BF]  (AR v2)
     Copy OK
Track  6
     Filename R:\FUZZbox vol.14 (FUZZ август 2001)\06. Chiron - Love Is....wav
     Pre-gap length  0:00:02.00
     Peak level 94.7 %
     Extraction speed 1.4 X
     Track quality 99.9 %
     Test CRC B92EB70F
     Copy CRC B92EB70F
     Accurately ripped (confidence 2)  [C247D905]  (AR v2)
     Copy OK
Track  7
     Filename R:\FUZZbox vol.14 (FUZZ август 2001)\07. Камикадзе - Лунофобия.wav
     Pre-gap length  0:00:02.00
     Peak level 98.8 %
     Extraction speed 1.6 X
     Track quality 100.0 %
     Test CRC 51F1DED9
     Copy CRC 51F1DED9
     Accurately ripped (confidence 2)  [2463BBAA]  (AR v2)
     Copy OK
Track  8
     Filename R:\FUZZbox vol.14 (FUZZ август 2001)\08. Deadушки - Плюшевый Ад.wav
     Pre-gap length  0:00:02.00
     Peak level 99.8 %
     Extraction speed 1.8 X
     Track quality 100.0 %
     Test CRC B553EED3
     Copy CRC B553EED3
     Accurately ripped (confidence 2)  [B55BB632]  (AR v2)
     Copy OK
Track  9
     Filename R:\FUZZbox vol.14 (FUZZ август 2001)\09. Катюша - Видимо Сон.wav
     Pre-gap length  0:00:02.00
     Peak level 99.8 %
     Extraction speed 1.8 X
     Track quality 100.0 %
     Test CRC 72A72FBA
     Copy CRC 72A72FBA
     Accurately ripped (confidence 2)  [DA906AB4]  (AR v2)
     Copy OK
Track 10
     Filename R:\FUZZbox vol.14 (FUZZ август 2001)\10. Этника - На Крыле.wav
     Pre-gap length  0:00:02.01
     Peak level 100.0 %
     Extraction speed 2.0 X
     Track quality 100.0 %
     Test CRC BC2607F0
     Copy CRC BC2607F0
     Accurately ripped (confidence 2)  [BDC4E886]  (AR v2)
     Copy OK
Track 11
     Filename R:\FUZZbox vol.14 (FUZZ август 2001)\11. 8-я Марта - Билли-Винки.wav
     Pre-gap length  0:00:02.00
     Peak level 91.7 %
     Extraction speed 2.0 X
     Track quality 100.0 %
     Test CRC 5DD0BF62
     Copy CRC 5DD0BF62
     Accurately ripped (confidence 2)  [E9B100A3]  (AR v2)
     Copy OK
Track 12
     Filename R:\FUZZbox vol.14 (FUZZ август 2001)\12. Король и Шут - Ели Мясо Мужики.wav
     Pre-gap length  0:00:02.01
     Peak level 87.3 %
     Extraction speed 1.8 X
     Track quality 100.0 %
     Test CRC 3E1F7C0C
     Copy CRC 3E1F7C0C
     Accurately ripped (confidence 2)  [13B37D76]  (AR v2)
     Copy OK
Track 13
     Filename R:\FUZZbox vol.14 (FUZZ август 2001)\13. Очистные Сооружения - Глобус.wav
     Pre-gap length  0:00:02.00
     Peak level 98.0 %
     Extraction speed 1.6 X
     Track quality 99.9 %
     Test CRC DA45E3CF
     Copy CRC DA45E3CF
     Accurately ripped (confidence 2)  [A30E7956]  (AR v2)
     Copy OK
Track 14
     Filename R:\FUZZbox vol.14 (FUZZ август 2001)\14. Картель - Стерва.wav
     Pre-gap length  0:00:02.00
     Peak level 98.7 %
     Extraction speed 2.0 X
     Track quality 100.0 %
     Test CRC 2E02CC5D
     Copy CRC 2E02CC5D
     Accurately ripped (confidence 2)  [76E7E647]  (AR v2)
     Copy OK
Track 15
     Filename R:\FUZZbox vol.14 (FUZZ август 2001)\15. Генератор Пэ - Лето.wav
     Pre-gap length  0:00:02.01
     Peak level 96.5 %
     Extraction speed 2.2 X
     Track quality 100.0 %
     Test CRC A4B3645A
     Copy CRC A4B3645A
     Accurately ripped (confidence 2)  [CAD4DF3C]  (AR v2)
     Copy OK
Track 16
     Filename R:\FUZZbox vol.14 (FUZZ август 2001)\16. Protozoa - Она Не Знала Как.wav
     Pre-gap length  0:00:02.00
     Peak level 87.9 %
     Extraction speed 2.2 X
     Track quality 100.0 %
     Test CRC 9B844FE1
     Copy CRC 9B844FE1
     Accurately ripped (confidence 2)  [B9FA3D1B]  (AR v2)
     Copy OK
Track 17
     Filename R:\FUZZbox vol.14 (FUZZ август 2001)\17. Седьмое Небо - Неудачный День.wav
     Pre-gap length  0:00:02.01
     Peak level 93.5 %
     Extraction speed 2.4 X
     Track quality 100.0 %
     Test CRC 212993BC
     Copy CRC 212993BC
     Accurately ripped (confidence 2)  [3E4E2375]  (AR v2)
     Copy OK
Track 18
     Filename R:\FUZZbox vol.14 (FUZZ август 2001)\18. Лена Тэ - День Ото Дня.wav
     Pre-gap length  0:00:02.00
     Peak level 96.5 %
     Extraction speed 2.1 X
     Track quality 99.9 %
     Test CRC A0256BC5
     Copy CRC A0256BC5
     Accurately ripped (confidence 2)  [7FA38BF8]  (AR v2)
     Copy OK
Track 19
     Filename R:\FUZZbox vol.14 (FUZZ август 2001)\19. Чиж & Чернецкий - Субмарина (Live in NY).wav
     Pre-gap length  0:00:02.00
     Peak level 98.8 %
     Extraction speed 2.4 X
     Track quality 100.0 %
     Test CRC 40FD07A2
     Copy CRC 40FD07A2
     Accurately ripped (confidence 2)  [EBCA2F7F]  (AR v2)
     Copy OK
Track 20
     Filename R:\FUZZbox vol.14 (FUZZ август 2001)\20. 7 Прохожий - Выше.wav
     Pre-gap length  0:00:02.00
     Peak level 96.5 %
     Extraction speed 2.4 X
     Track quality 100.0 %
     Test CRC 05B7389B
     Copy CRC 05B7389B
     Accurately ripped (confidence 2)  [0B404B04]  (AR v2)
     Copy OK
All tracks accurately ripped
No errors occurred
End of status report
---- CUETools DB Plugin V2.1.6
[CTDB TOCID: LCHtR1vuovFxtne716UA_1X6NDc-] found
Submit result: LCHtR1vuovFxtne716UA_1X6NDc- has been confirmed
Track | CTDB Status
  1   | (2/2) Accurately ripped
  2   | (2/2) Accurately ripped
  3   | (2/2) Accurately ripped
  4   | (2/2) Accurately ripped
  5   | (2/2) Accurately ripped
  6   | (2/2) Accurately ripped
  7   | (2/2) Accurately ripped
  8   | (2/2) Accurately ripped
  9   | (2/2) Accurately ripped
 10   | (2/2) Accurately ripped
 11   | (2/2) Accurately ripped
 12   | (2/2) Accurately ripped
 13   | (2/2) Accurately ripped
 14   | (2/2) Accurately ripped
 15   | (2/2) Accurately ripped
 16   | (2/2) Accurately ripped
 17   | (2/2) Accurately ripped
 18   | (2/2) Accurately ripped
 19   | (2/2) Accurately ripped
 20   | (2/2) Accurately ripped
==== Log checksum 917DC8B5C0B3D2F11FEF54C028974CBD174EE92BBCBC6C478079DC12E901143B ====
Код: Выделить всё
REM GENRE Rock
REM DATE 2001
REM DISCID 11116914
REM COMMENT "ExactAudioCopy v1.3"
CATALOG 0000000000000
PERFORMER "Various"
TITLE "FUZZbox vol.14 (FUZZ август 2001)"
REM COMPOSER "Various"
FILE "01. Animal Джаz - Реквием.flac" WAVE
  TRACK 01 AUDIO
    TITLE "Реквием"
    PERFORMER "Animal Джаz"
    REM COMPOSER "Various"
    INDEX 01 00:00:00
  TRACK 02 AUDIO
    TITLE "Когда Будет Тепло"
    PERFORMER "Рада и Терновник"
    REM COMPOSER "Various"
    INDEX 00 03:16:72
FILE "02. Рада и Терновник - Когда Будет Тепло.flac" WAVE
    INDEX 01 00:00:00
  TRACK 03 AUDIO
    TITLE "Зима В Муммидоле"
    PERFORMER "Пилот"
    REM COMPOSER "Various"
    INDEX 00 03:39:39
FILE "03. Пилот - Зима В Муммидоле.flac" WAVE
    INDEX 01 00:00:00
  TRACK 04 AUDIO
    TITLE "Испанская"
    PERFORMER "Бабслэй"
    REM COMPOSER "Various"
    INDEX 00 03:45:54
FILE "04. Бабслэй - Испанская.flac" WAVE
    INDEX 01 00:00:00
  TRACK 05 AUDIO
    TITLE "Парус (Беспокойство)"
    PERFORMER "Johns Quijote"
    REM COMPOSER "Various"
    INDEX 00 02:16:38
FILE "05. Johns Quijote - Парус (Беспокойство).flac" WAVE
    INDEX 01 00:00:00
  TRACK 06 AUDIO
    TITLE "Love Is..."
    PERFORMER "Chiron"
    REM COMPOSER "Various"
    INDEX 00 01:46:67
FILE "06. Chiron - Love Is....flac" WAVE
    INDEX 01 00:00:00
  TRACK 07 AUDIO
    TITLE "Лунофобия"
    PERFORMER "Камикадзе"
    REM COMPOSER "Various"
    INDEX 00 04:07:00
FILE "07. Камикадзе - Лунофобия.flac" WAVE
    INDEX 01 00:00:00
  TRACK 08 AUDIO
    TITLE "Плюшевый Ад"
    PERFORMER "Deadушки"
    REM COMPOSER "Various"
    INDEX 00 03:38:71
FILE "08. Deadушки - Плюшевый Ад.flac" WAVE
    INDEX 01 00:00:00
  TRACK 09 AUDIO
    TITLE "Видимо Сон"
    PERFORMER "Катюша"
    REM COMPOSER "Various"
    INDEX 00 04:22:52
FILE "09. Катюша - Видимо Сон.flac" WAVE
    INDEX 01 00:00:00
  TRACK 10 AUDIO
    TITLE "На Крыле"
    PERFORMER "Этника"
    REM COMPOSER "Various"
    INDEX 00 03:20:65
FILE "10. Этника - На Крыле.flac" WAVE
    INDEX 01 00:00:00
  TRACK 11 AUDIO
    TITLE "Билли-Винки"
    PERFORMER "8-я Марта"
    REM COMPOSER "Various"
    INDEX 00 07:16:09
FILE "11. 8-я Марта - Билли-Винки.flac" WAVE
    INDEX 01 00:00:00
  TRACK 12 AUDIO
    TITLE "Ели Мясо Мужики"
    PERFORMER "Король и Шут"
    REM COMPOSER "Various"
    INDEX 00 03:10:46
FILE "12. Король и Шут - Ели Мясо Мужики.flac" WAVE
    INDEX 01 00:00:00
  TRACK 13 AUDIO
    TITLE "Глобус"
    PERFORMER "Очистные Сооружения"
    REM COMPOSER "Various"
    INDEX 00 02:13:53
FILE "13. Очистные Сооружения - Глобус.flac" WAVE
    INDEX 01 00:00:00
  TRACK 14 AUDIO
    TITLE "Стерва"
    PERFORMER "Картель"
    REM COMPOSER "Various"
    INDEX 00 02:36:50
FILE "14. Картель - Стерва.flac" WAVE
    INDEX 01 00:00:00
  TRACK 15 AUDIO
    TITLE "Лето"
    PERFORMER "Генератор Пэ"
    REM COMPOSER "Various"
    INDEX 00 02:50:09
FILE "15. Генератор Пэ - Лето.flac" WAVE
    INDEX 01 00:00:00
  TRACK 16 AUDIO
    TITLE "Она Не Знала Как"
    PERFORMER "Protozoa"
    REM COMPOSER "Various"
    INDEX 00 04:45:66
FILE "16. Protozoa - Она Не Знала Как.flac" WAVE
    INDEX 01 00:00:00
  TRACK 17 AUDIO
    TITLE "Неудачный День"
    PERFORMER "Седьмое Небо"
    REM COMPOSER "Various"
    INDEX 00 04:04:41
FILE "17. Седьмое Небо - Неудачный День.flac" WAVE
    INDEX 01 00:00:00
  TRACK 18 AUDIO
    TITLE "День Ото Дня"
    PERFORMER "Лена Тэ"
    REM COMPOSER "Various"
    INDEX 00 05:18:14
FILE "18. Лена Тэ - День Ото Дня.flac" WAVE
    INDEX 01 00:00:00
  TRACK 19 AUDIO
    TITLE "Субмарина (Live in NY)"
    PERFORMER "Чиж & Чернецкий"
    REM COMPOSER "Various"
    INDEX 00 03:37:10
FILE "19. Чиж & Чернецкий - Субмарина (Live in NY).flac" WAVE
    INDEX 01 00:00:00
  TRACK 20 AUDIO
    TITLE "Выше"
    PERFORMER "7 Прохожий"
    REM COMPOSER "Various"
    INDEX 00 04:03:15
FILE "20. 7 Прохожий - Выше.flac" WAVE
    INDEX 01 00:00:00
Код: Выделить всё
AUDIOCHECKER v2.0 beta (build 457) - by Dester - opdester@freemail.hu
~~~~~~~~~~~~~~~~~~~~~~~~~~~~~~~~~~
-=== DO NOT EDIT THIS FILE! ===-
Path: ...\FUZZbox vol.14 (FUZZ август 2001)
01 -=- 01. Animal Джаz - Реквием.flac -=- CDDA (100%)
02 -=- 02. Рада и Терновник - Когда Будет Тепло.flac -=- CDDA (100%)
03 -=- 03. Пилот - Зима В Муммидоле.flac -=- CDDA (100%)
04 -=- 04. Бабслэй - Испанская.flac -=- CDDA (100%)
05 -=- 05. Johns Quijote - Парус (Беспокойство).flac -=- CDDA (100%)
06 -=- 06. Chiron - Love Is....flac -=- CDDA (100%)
07 -=- 07. Камикадзе - Лунофобия.flac -=- CDDA (100%)
08 -=- 08. Deadушки - Плюшевый Ад.flac -=- CDDA (100%)
09 -=- 09. Катюша - Видимо Сон.flac -=- CDDA (100%)
10 -=- 10. Этника - На Крыле.flac -=- CDDA (100%)
11 -=- 11. 8-я Марта - Билли-Винки.flac -=- CDDA (100%)
12 -=- 12. Король и Шут - Ели Мясо Мужики.flac -=- CDDA (100%)
13 -=- 13. Очистные Сооружения - Глобус.flac -=- CDDA (100%)
14 -=- 14. Картель - Стерва.flac -=- CDDA (100%)
15 -=- 15. Генератор Пэ - Лето.flac -=- CDDA (100%)
16 -=- 16. Protozoa - Она Не Знала Как.flac -=- CDDA (100%)
17 -=- 17. Седьмое Небо - Неудачный День.flac -=- CDDA (99%)
18 -=- 18. Лена Тэ - День Ото Дня.flac -=- CDDA (100%)
19 -=- 19. Чиж & Чернецкий - Субмарина (Live in NY).flac -=- CDDA (100%)
20 -=- 20. 7 Прохожий - Выше.flac -=- CDDA (100%)
Summary 99,95% CDDA
182705012
foobar2000 1.3.10 / Замер динамического диапазона (DR) 1.1.1
Дата отчёта: 2019-05-17 15:42:30
--------------------------------------------------------------------------------
Анализ: 7 Прохожий / FUZZbox vol.14 (FUZZ август 2001) (1)
8-я Марта / FUZZbox vol.14 (FUZZ август 2001) (2)
Animal Джаz / FUZZbox vol.14 (FUZZ август 2001) (3)
Chiron / FUZZbox vol.14 (FUZZ август 2001) (4)
Deadушки / FUZZbox vol.14 (FUZZ август 2001) (5)
Johns Quijote / FUZZbox vol.14 (FUZZ август 2001) (6)
Protozoa / FUZZbox vol.14 (FUZZ август 2001) (7)
Бабслэй / FUZZbox vol.14 (FUZZ август 2001) (8)
Генератор Пэ / FUZZbox vol.14 (FUZZ август 2001) (9)
Камикадзе / FUZZbox vol.14 (FUZZ август 2001) (10)
Картель / FUZZbox vol.14 (FUZZ август 2001) (11)
Катюша / FUZZbox vol.14 (FUZZ август 2001) (12)
Король и Шут / FUZZbox vol.14 (FUZZ август 2001) (13)
Лена Тэ / FUZZbox vol.14 (FUZZ август 2001) (14)
Очистные Сооружения / FUZZbox vol.14 (FUZZ август 2001) (15)
Пилот / FUZZbox vol.14 (FUZZ август 2001) (16)
Рада и Терновник / FUZZbox vol.14 (FUZZ август 2001) (17)
Седьмое Небо / FUZZbox vol.14 (FUZZ август 2001) (18)
Чиж & Чернецкий / FUZZbox vol.14 (FUZZ август 2001) (19)
Этника / FUZZbox vol.14 (FUZZ август 2001) (20)
--------------------------------------------------------------------------------
DR Пики RMS Продолжительность трека
--------------------------------------------------------------------------------
DR12 -0.30 дБ -14.41 дБ 3:28 20-Выше
DR9 -0.75 дБ -11.29 дБ 3:13 11-Билли-Винки
DR12 -0.15 дБ -16.62 дБ 3:19 01-Реквием
DR8 -0.47 дБ -10.57 дБ 4:09 06-Love Is...
DR8 -0.01 дБ -10.15 дБ 4:25 08-Плюшевый Ад
DR7 -0.88 дБ -9.08 дБ 1:49 05-Парус (Беспокойство)
DR7 -1.11 дБ -9.86 дБ 4:07 16-Она Не Знала Как
DR8 -0.10 дБ -10.47 дБ 2:19 04-Испанская
DR9 -0.30 дБ -10.05 дБ 4:48 15-Лето
DR10 -0.10 дБ -11.90 дБ 3:41 07-Лунофобия
DR6 -0.11 дБ -7.83 дБ 2:52 14-Стерва
DR8 -0.01 дБ -9.88 дБ 3:23 09-Видимо Сон
DR7 -1.17 дБ -9.31 дБ 2:16 12-Ели Мясо Мужики
DR8 -0.30 дБ -9.67 дБ 3:39 18-День Ото Дня
DR10 -0.17 дБ -10.94 дБ 2:39 13-Глобус
DR6 -2.01 дБ -11.66 дБ 3:48 03-Зима В Муммидоле
DR8 -0.65 дБ -10.14 дБ 3:42 02-Когда Будет Тепло
DR7 -0.58 дБ -9.41 дБ 5:20 17-Неудачный День
DR7 -0.10 дБ -10.67 дБ 4:05 19-Субмарина (Live in NY)
DR11 0.00 дБ -14.14 дБ 7:18 10-На Крыле
--------------------------------------------------------------------------------
Количество треков: 20
Реальные значения DR: DR8
Частота: 44100 Гц
Каналов: 2
Разрядность: 16
Битрейт: 884 кбит/с
Кодек: FLAC
================================================================================
Правила, инструкции, FAQ!!!
Торрент  Добавлен [26 май 2019, 17:08] Скачать торрент Магнет ссылка
Скачать торрент
17.62 КБ

Статус
Проверен 
 
Размер  1.46 ГБ
Приватный: Нет (DHT включён)
.torrent скачан  2
Как залить торрент? | Как скачать Torrent? | Как смотреть и слушать онлайн?  
Гость
 


Вернуться в Русский рок

Кто сейчас на конференции

Сейчас этот форум просматривают: нет зарегистрированных пользователей и гости: 0