(Rock) [CD] VA - Осторожно Рок! Часть 2 - 2004, FLAC (image+.cue), lossless


Статистика раздачи
Размер: 420.58 МБ | Добавлен: 26 май 2019, 17:09 | Скачали: 4
Сидеров: 15  [0 байт/сек]    Личеров: 2  [0 байт/сек]

Сообщение Гость » 26 май 2019, 17:09

Various Artists - Осторожно Рок! Часть 2
Жанр: Rock
Носитель: CD
Страна-производитель диска (релиза): Россия
Год издания: 2004
Издатель (лейбл): Никитин
Номер по каталогу: TFN-CD 114/04
Аудиокодек: FLAC|MP3
Тип рипа: image+.cue
Продолжительность: 58:20
Источник: собственный рип
Наличие сканов в содержимом раздачи: да
Треклист:
01. Чичерина - На запах
02. Tokio - Сердце
03. Вячеслав Бутусов/Ю-Питер - Песня идущего домой
04. Звери - Пингвины
05. Торба на Круче - Чей же он
06. Мара - По дороге к Амстердаму
07. Сурганова - Апрельская
08. Рина Рок - Я плохая
09. Моральный кодекс - В ожидании чуда
10. Butch - Встану
11. Мёртвые дельфины - На моей Луне
12. Сансара - Сердце бьётся за двоих
13. Мультфильмы - Выключатели
14. Кукрыниксы - Знай
15. Чиж & Avenue - Уезжали туда
16. Павел Кашин - Московская одиссея
Код: Выделить всё
Exact Audio Copy V1.3 from 2. September 2016
Отчёт EAC об извлечении, выполненном 25. мая 2019, 12:49
Various Artists / Осторожно РОК!
Дисковод: HL-DT-STDVDRAM GT70N   Adapter: 1  ID: 0
Режим чтения                 : Достоверность
Использование точного потока : Да
Отключение кэша аудио        : Да
Использование указателей C2  : Нет
Коррекция смещения при чтении                     : 103
Способность читать области Lead-in и Lead-out     : Нет
Заполнение пропущенных сэмплов тишиной            : Да
Удаление блоков с тишиной в начале и конце        : Нет
При вычислениях CRC использовались нулевые сэмплы : Да
Интерфейс                                         : Встроенный Win32-интерфейс для Win NT/2000
Выходной формат          : Пользовательский кодировщик
Выбранный битрейт        : 128 kBit/s
Качество                 : Высокий
Добавление ID3-тега      : Нет
Утилита сжатия           : C:\Users\Admin\Downloads\flac-1.3.2-win\flac-1.3.2-win\win64\flac.exe
Дополнительные параметры : -V -8 -T "Date=%year%" -T "Genre=%genre%" %source%
TOC извлечённого CD
     Трек |   Старт  | Длительность | Начальный сектор | Конечный сектор
    ---------------------------------------------------------------------
       1  |  0:00.00 |    3:33.01   |           0      |      15975
       2  |  3:33.01 |    3:54.16   |       15976      |      33541
       3  |  7:27.17 |    2:53.17   |       33542      |      46533
       4  | 10:20.34 |    3:52.12   |       46534      |      63945
       5  | 14:12.46 |    3:28.43   |       63946      |      79588
       6  | 17:41.14 |    3:33.20   |       79589      |      95583
       7  | 21:14.34 |    3:45.46   |       95584      |     112504
       8  | 25:00.05 |    4:09.59   |      112505      |     131238
       9  | 29:09.64 |    4:01.21   |      131239      |     149334
      10  | 33:11.10 |    3:42.51   |      149335      |     166035
      11  | 36:53.61 |    3:20.71   |      166036      |     181106
      12  | 40:14.57 |    3:34.00   |      181107      |     197156
      13  | 43:48.57 |    3:27.57   |      197157      |     212738
      14  | 47:16.39 |    3:53.51   |      212739      |     230264
      15  | 51:10.15 |    3:18.69   |      230265      |     245183
      16  | 54:29.09 |    3:50.14   |      245184      |     262447
Характеристики диапазона извлечения и сообщения об ошибках
Выбранный диапазон
     Имя файла C:\Users\Admin\Desktop\Новая папка\Various Artists - Осторожно РОК!.wav
     Пиковый уровень 96.6 %
     Скорость извлечения 4.8 X
     Качество диапазона 99.9 %
     CRC теста 970603EF
     CRC копии 970603EF
     Копирование... OK
Ошибок не произошло
AccurateRip: сводка
Трек  1  отсутствует в базе данных
Трек  2  отсутствует в базе данных
Трек  3  отсутствует в базе данных
Трек  4  отсутствует в базе данных
Трек  5  отсутствует в базе данных
Трек  6  отсутствует в базе данных
Трек  7  отсутствует в базе данных
Трек  8  отсутствует в базе данных
Трек  9  отсутствует в базе данных
Трек 10  отсутствует в базе данных
Трек 11  отсутствует в базе данных
Трек 12  отсутствует в базе данных
Трек 13  отсутствует в базе данных
Трек 14  отсутствует в базе данных
Трек 15  отсутствует в базе данных
Трек 16  отсутствует в базе данных
Ни одного трека нет в базе AccurateRip
Конец отчёта
==== Контрольная сумма отчёта 85B041056A5A38AA99BE03AB80FB38B0F4743918D6B6BE9E14E4EB3EE1535B2A ====
Код: Выделить всё
REM GENRE Rock
REM DATE 2004
REM DISCID CC0DAB10
REM COMMENT "ExactAudioCopy v1.3"
PERFORMER "Various Artists"
TITLE "Осторожно РОК!"
REM COMPOSER ""
FILE "Various Artists - Осторожно РОК!.flac" WAVE
  TRACK 01 AUDIO
    TITLE "На запах"
    PERFORMER "Чичерина"
    REM COMPOSER ""
    INDEX 01 00:00:00
  TRACK 02 AUDIO
    TITLE "Сердце"
    PERFORMER "TOKiO"
    REM COMPOSER ""
    INDEX 00 03:31:24
    INDEX 01 03:33:01
  TRACK 03 AUDIO
    TITLE "Песня идущего домой"
    PERFORMER "Вячеслав Бутусов/Ю-Питер"
    REM COMPOSER ""
    INDEX 00 07:25:40
    INDEX 01 07:27:17
  TRACK 04 AUDIO
    TITLE "Пингвины"
    PERFORMER "Звери"
    REM COMPOSER ""
    INDEX 00 10:18:57
    INDEX 01 10:20:34
  TRACK 05 AUDIO
    TITLE "Чей же он"
    PERFORMER "Торба на Круче"
    REM COMPOSER ""
    INDEX 00 14:10:69
    INDEX 01 14:12:46
  TRACK 06 AUDIO
    TITLE "По дороге к Амстердаму"
    PERFORMER "Мара"
    REM COMPOSER ""
    INDEX 00 17:39:37
    INDEX 01 17:41:14
  TRACK 07 AUDIO
    TITLE "Апрельская"
    PERFORMER "Сурганова"
    REM COMPOSER ""
    INDEX 00 21:12:57
    INDEX 01 21:14:34
  TRACK 08 AUDIO
    TITLE "Я плохая"
    PERFORMER "Рина Рок"
    REM COMPOSER ""
    INDEX 00 24:58:28
    INDEX 01 25:00:05
  TRACK 09 AUDIO
    TITLE "В ожидании чуда"
    PERFORMER "Моральный кодекс"
    REM COMPOSER ""
    INDEX 00 29:08:12
    INDEX 01 29:09:64
  TRACK 10 AUDIO
    TITLE "Встану"
    PERFORMER "Butch"
    REM COMPOSER ""
    INDEX 00 33:09:33
    INDEX 01 33:11:10
  TRACK 11 AUDIO
    TITLE "На моей луне"
    PERFORMER "Мёртвые дельфины"
    REM COMPOSER ""
    INDEX 00 36:52:09
    INDEX 01 36:53:61
  TRACK 12 AUDIO
    TITLE "Сердце бьётся за двоих"
    PERFORMER "Сансара"
    REM COMPOSER ""
    INDEX 00 40:13:05
    INDEX 01 40:14:57
  TRACK 13 AUDIO
    TITLE "Выключатели"
    PERFORMER "Мультфильмы"
    REM COMPOSER ""
    INDEX 00 43:47:05
    INDEX 01 43:48:57
  TRACK 14 AUDIO
    TITLE "Знай"
    PERFORMER "Кукрыниксы"
    REM COMPOSER ""
    INDEX 00 47:14:62
    INDEX 01 47:16:39
  TRACK 15 AUDIO
    TITLE "Уезжали туда"
    PERFORMER "Чиж & Авеню"
    REM COMPOSER ""
    INDEX 00 51:08:38
    INDEX 01 51:10:15
  TRACK 16 AUDIO
    TITLE "Московская одиссея"
    PERFORMER "Павел Кашин"
    REM COMPOSER ""
    INDEX 00 54:27:32
    INDEX 01 54:29:09
Правила, инструкции, FAQ!!!
Торрент  Добавлен [26 май 2019, 17:09] Скачать торрент Магнет ссылка
Скачать торрент
17.38 КБ

Статус
Проверен 
 
Размер  420.58 МБ
Приватный: Нет (DHT включён)
.torrent скачан  4
Как залить торрент? | Как скачать Torrent? | Как смотреть и слушать онлайн?  
Гость
 


Вернуться в Русский рок

Кто сейчас на конференции

Сейчас этот форум просматривают: нет зарегистрированных пользователей и гости: 1