Шишкина школа. Рисование [2011, Передача для детей, SATRip, RUS] (Видеоурок)


Статистика раздачи
Размер: 5.22 ГБ | Добавлен: 28 янв 2015, 00:15 | Скачали: 27
Сидеров: 491  [0 байт/сек]    Личеров: 17  [0 байт/сек]

Сообщение Гость » 28 янв 2015, 00:15

Шишкина школа. Рисование

Страна: Россия
Тематика: Передача для детей
Тип раздаваемого материала: Видеоурок
Продолжительность: 08:36:13
Год выпуска: 2011

Язык: Русский
Перевод: Не требуется

Описание: Настоящий художник должен уметь видеть необычное в обыкновенном. Да, да! Сначала он должен научиться подмечать такие детали, которые не заметит никто другой, а уж потом браться за кисти и краски. Впрочем, иногда бывает и наоборот. В любом случае надо непременно попробовать вместе с Художником написать автопортрет, натюрморт и даже пейзаж! Уроки рисования в лесной школе — это незабываемое путешествие в мир гармонии.

Доп. информация: Видеоуроки рисования для малышей могут быть использованы не только для семейного просмотра, но и для показа на занятиях в дошкольных учреждения.

Качество: SATRip
Формат: AVI
Видео кодек: XviD
Аудио кодек: MP3
Видео: XviD, 720x544, (4:3), ~1360kbps avg, 0.14 bit/pixel, 25 fps
Аудио: 48.100 kHz, MPEG Layer 3, 2 ch, 106.00 kbps avg
General
Complete name: F:\Детям\Передачи\ТК Союз\Шишкин Лес\Шишкина Школа\Рисоваание\02. Линии.avi
Format: AVI
Format/Info: Audio Video Interleave
File size: 45.0 MiB
Duration: 4mn 18s
Overall bit rate mode: Variable
Overall bit rate: 1 462 Kbps
Writing application: VirtualDubMod 1.5.4.1 (build 2178/release)
Writing library: VirtualDubMod build 2178/release

Video
ID: 0
Format: MPEG-4 Visual
Format settings, BVOP: 1
Format settings, QPel: No
Format settings, GMC: No warppoints
Format settings, Matrix: Default (H.263)
Muxing mode: Packed bitstream
Codec ID: DX50
Codec ID/Hint: DivX 5
Duration: 4mn 18s
Bit rate: 1 345 Kbps
Width: 720 pixels
Height: 544 pixels
Display aspect ratio: 4:3
Frame rate: 25.000 fps
Color space: YUV
Chroma subsampling: 4:2:0
Bit depth: 8 bits
Scan type: Progressive
Compression mode: Lossy
Bits/(Pixel*Frame): 0.137
Stream size: 41.4 MiB (92%)
Writing library: DivX 6.8.5 (UTC 2009-08-20)

Audio
ID: 1
Format: MPEG Audio
Format version: Version 1
Format profile: Layer 3
Mode: Joint stereo
Mode extension: MS Stereo
Codec ID: 55
Codec ID/Hint: MP3
Duration: 4mn 17s
Bit rate mode: Variable
Bit rate: 104 Kbps
Channel count: 2 channels
Sampling rate: 48.0 KHz
Compression mode: Lossy
Stream size: 3.20 MiB (7%)
Alignment: Aligned on interleaves
Interleave, duration: 24 ms (0.60 video frame)
Interleave, preload duration: 520 ms
Правила, инструкции, FAQ!!!
Торрент  Добавлен [28 янв 2015, 00:15] Скачать торрент Магнет ссылка
Скачать торрент
19.63 КБ

Статус
Проверен 
 
Размер  5.22 ГБ
Приватный: Нет (DHT включён)
.torrent скачан  27
Как залить торрент? | Как скачать Torrent? | Как смотреть и слушать онлайн?  
Гость
 



Вернуться в Обучающие издания для детей

Кто сейчас на конференции

Сейчас этот форум просматривают: нет зарегистрированных пользователей и гости: 0