[SACD-R][OF] Шостакович / Shostakovich Complete String Quartets, Vol.2 (Mandelring Quartett) - 2007 (Classical/Chamber/Strings)


Статистика раздачи
Размер: 3.63 ГБ | Добавлен: 20 окт 2019, 10:28 | Скачали: 2
Сидеров: 16  [0 байт/сек]    Личеров: 5  [0 байт/сек]

Сообщение Гость » 20 окт 2019, 10:28

Шостакович / Shostakovich
Complete String Quartets, Vol.2

Mandelring Quartett

Формат записи/Источник записи: [SACD-R][OF]
Наличие водяных знаков: Нет
Год издания/переиздания диска: 2007
Жанр: Classical/Chamber/Strings
Издатель (лейбл): Audite
Продолжительность: 01:10:07
Наличие сканов в содержимом раздачи: Только обложка альбома
Треклист:
String Quartet No. 3 In F Major, Op. 73. (29:26)
1. Allegretto. 7:03
2. Moderato Con Moto. 4:40
3. Allegro Non Troppo. 4:02
4. Adagio. 4:27
5. Moderato. 9:14
String Quartet No. 6 In G Major, Op. 101. (21:38)
6. Allegretto. 6:41
7. Moderato Con Moto. 4:22
8. Lento. 3:52
9. Allegretto. 6:43
String Quartet No. 8 In C Minor, Op. 110. (18:56)
10. Largo. 4:30
11. Allegro Molto. 2:41
12. Allegretto. 3:59
13. Largo. 4:17
14. Largo. 3:29
Mandelring Quartett:
Cello – Bernhard Schmidt
Viola – Roland Glassl
Violin – Nanette Schmidt, Sebastian Schmidt
Контейнер: ISO (*.iso)
Тип рипа: image
Разрядность: 64(2,8 MHz/1 Bit)
Формат: DST64
Количество каналов: 5.0, 2.0
Доп. информация: Audite 52162218
Producer – Ludger Böckenhoff
recording: June 26 - 28, 2006
recording location: Klingenmünster
equipement: Sennheiser MKH 20, MKH 40
Neumann KM I30, KM I34, U87
Brüel & Kjaer 4006
custom-made mic-amps, RME mic-amps
Stax SRM Monitor, Dynaudio Air, ME Geithain RL 906
recording format: pcm, 88kHz / 24bit
pcm-dsd conversion: Philips AFC, Sigma Delta type D
sacd authoring: Philips SACD creator
Источник (релизер): собственный рип от ehondik
http://www.sa-cd.net/showtitle/4501
https://www.amazon.com/Shostakovich-Complete-String-Quartets-Vol/dp/B000V7HG6S
Код: Выделить всё
foobar2000 1.3.13 / Замер динамического диапазона (DR) 1.1.1
Дата отчёта:  2019-09-22 18:42:37
--------------------------------------------------------------------------------
Анализ:   Mandelring Quartet / Shostakovich: Complete String Quartets Vol2
--------------------------------------------------------------------------------
DR         Пики         RMS           Продолжительность трека
--------------------------------------------------------------------------------
DR15     -10.28 дБ   -33.47 дБ      7:04 01-Quartet Nr.3 F major op.73_I.Allegretto
DR14     -10.50 дБ   -34.33 дБ      4:40 02-Quartet Nr.3 F major op.73_II.Moderato con moto
DR14      -6.98 дБ   -27.84 дБ      4:02 03-Quartet Nr.3 F major op.73_III.Allegro non troppo
DR13      -8.26 дБ   -34.16 дБ      4:27 04-Quartet Nr.3 F major op.73_IV.Adagio
DR16      -9.68 дБ   -34.86 дБ      9:14 05-Quartet Nr.3 F major op.73_V.Moderato
DR14      -9.17 дБ   -32.24 дБ      6:41 06-Quartet Nr.6 op.101_I.Allegretto
DR14     -13.74 дБ   -38.68 дБ      4:23 07-Quartet Nr.6 op.101_II.Moderato con moto
DR13     -21.53 дБ   -41.29 дБ      3:52 08-Quartet Nr.6 op.101_III.Lento
DR13      -9.46 дБ   -33.27 дБ      6:44 09-Quartet Nr.6 op. 101_IV.Lento - Allegretto - Andante - Lento
DR15     -14.05 дБ   -38.74 дБ      4:31 10-Quartet Nr.8 op.110_I.Largo
DR12      -9.08 дБ   -26.56 дБ      2:41 11-Quartet Nr.8 op.110_II.Allegro molto
DR17      -8.02 дБ   -34.89 дБ      3:59 12-Quartet Nr.8 op.110_III.Allegretto
DR15      -9.02 дБ   -33.77 дБ      4:17 13-Quartet Nr.8 op.110_IV.Largo
DR12     -15.37 дБ   -36.71 дБ      3:30 14-Quartet Nr.8 op.110_V.Largo
--------------------------------------------------------------------------------
Количество треков: 14
Реальные значения DR: DR14
Частота:   2822400 Гц / Частота PCM: 88200 Гц
Каналов:   6
Разрядность:   24
Битрейт:   16934 кбит/с
Кодек:   DST64
================================================================================
--------------------------------------------------------------------------------
Анализ:   Mandelring Quartet / Shostakovich: Complete String Quartets Vol2
--------------------------------------------------------------------------------
DR         Пики         RMS           Продолжительность трека
--------------------------------------------------------------------------------
DR15      -8.53 дБ   -30.15 дБ      7:04 01-Quartet Nr.3 F major op.73_I.Allegretto
DR14      -8.39 дБ   -31.06 дБ      4:40 02-Quartet Nr.3 F major op.73_II.Moderato con moto
DR15      -6.78 дБ   -24.55 дБ      4:02 03-Quartet Nr.3 F major op.73_III.Allegro non troppo
DR14      -7.90 дБ   -30.80 дБ      4:27 04-Quartet Nr.3 F major op.73_IV.Adagio
DR16      -7.63 дБ   -31.31 дБ      9:14 05-Quartet Nr.3 F major op.73_V.Moderato
DR14      -7.66 дБ   -28.89 дБ      6:41 06-Quartet Nr.6 op.101_I.Allegretto
DR14     -12.17 дБ   -35.76 дБ      4:23 07-Quartet Nr.6 op.101_II.Moderato con moto
DR13     -18.72 дБ   -38.50 дБ      3:52 08-Quartet Nr.6 op.101_III.Lento
DR14      -7.90 дБ   -29.84 дБ      6:44 09-Quartet Nr.6 op. 101_IV.Lento - Allegretto - Andante - Lento
DR14     -13.74 дБ   -35.66 дБ      4:31 10-Quartet Nr.8 op.110_I.Largo
DR13      -7.89 дБ   -23.17 дБ      2:41 11-Quartet Nr.8 op.110_II.Allegro molto
DR17      -6.46 дБ   -31.41 дБ      3:59 12-Quartet Nr.8 op.110_III.Allegretto
DR15      -7.17 дБ   -30.47 дБ      4:17 13-Quartet Nr.8 op.110_IV.Largo
DR12     -14.86 дБ   -34.02 дБ      3:30 14-Quartet Nr.8 op.110_V.Largo
--------------------------------------------------------------------------------
Количество треков: 14
Реальные значения DR: DR14
Частота:   2822400 Гц / Частота PCM: 88200 Гц
Каналов:   2
Разрядность:   24
Битрейт:   5645 кбит/с
Кодек:   DST64
================================================================================
Site review by Polly Nomial January 20, 2009
Performance: Sonics:
The text for this review has been moved to the new site. You can read it here:
http://www.HRAudio.net/showmusic.php?title=4501#reviews
Review by andrewb May 1, 2007 (7 of 7 found this review helpful)
Performance: Sonics:
This recording of the 8th quartet might receive some contrasting views.
First of all it sounds beautiful, an adjective I have never applied before to the 8th, terms like intensity, discord, pain, emptiness, agitatation, nervousness, tension, overwrought, even horror might be used but never beauty until now. However, as the concomitant of this beauty some will find that the performance lacks the searing intensity and pain of other performances, such as the Borodin Quartet from the early eighties.
My personal view is that this recording is very fine, and it gives us a view that is not over laden with political and historical significance. Yes, there is loneliness to be heard here, and pain, but most of all it is the music that one hears – never before have I heard the musical threads played with such clarity; the ensemble between the players is marvellous. Each part of the quartet is expertly balanced into an architectural whole starting from the beginning when the opening motif is passed from cello to viola and then to 2nd and 1st violin, a magical moment, followed by the frightful start of the 2nd movement allegro succeeded by the zestful but sinister Yiddish theme, the discordant slashes of the violin strings in the 4th and finally ending in the peace and loneliness of the finale.
This is a performance where the music is central and it confirms the 8th quartet as one of the finest compositions of the 20th century.
As to the 3rd and 6th quartets, they are played with equal clarity and conviction, each is fascinating and startling in their originality. Anyone who has the first volume in this series will know what to expect here.
The sound in multi-channel is excellent, it is detailed and clear, similar to volume 1, and has a warm, almost romantic tone. The spread of instuments between the front speakers is perfect. My only small criticism is that the warmth of sound might be inappropriate to these quartets; some might argue that Shostakovich is better heard with an abrasive sound on the violins thus accentuating the emotional intensity of the works.
The booklet notes are quite good and concentrate on the significance of the music in its social context while the accompanying promotional DVD has some brief comments from the players about playing in a string quartet with some pleasing excerpts from Schubert’s “Death and the Maiden”, Brahms Op. 51/1 and Shostakovich No 2.
At the end of the booklet the release schedule states that volume 3 is planned for later this year and will contain numbers 5, 7 and 9, while volume 4 will be released next year with quartets 10, 12 and 14.
Review by krisjan October 20, 2007 (7 of 8 found this review helpful)
Performance: Sonics:
The text for this review has been moved to the new site. You can read it here:
http://www.HRAudio.net/showmusic.php?title=4501#reviews
Спасибо ehondik за предоставленный рип.
Шостакович / Shostakovich Complete String Quartets (Mandelring Quartett), Vol.1
Шостакович / Shostakovich Complete String Quartets (Mandelring Quartett), Vol.3
Шостакович / Shostakovich Complete String Quartets (Mandelring Quartett), Vol.4
Правила, инструкции, FAQ!!!
Торрент  Добавлен [20 окт 2019, 10:28] Скачать торрент Магнет ссылка
Скачать торрент
73.22 КБ

Статус
Проверен 
 
Размер  3.63 ГБ
Приватный: Нет (DHT включён)
.torrent скачан  2
Как залить торрент? | Как скачать Torrent? | Как смотреть и слушать онлайн?  
Гость
 


Вернуться в Классика и классика в современной обработке (многоканальная музыка)

Кто сейчас на конференции

Сейчас этот форум просматривают: нет зарегистрированных пользователей и гости: 0